Ссылка на приватное зеркало всего за 1$. Внимание количество ограничено!!!

OK

1+1

iTunes

мы

OK

1

WEB-DLRip

Джокер

Пифагор

Ведьмак / The Witcher сериал

Лицензия

ПШазам

ОК

Оно 2

iTunes

30
pack

Вам бонус

ВАЖНО

!!Акция!!

Alien_RageХит недели

RePack

Resident Evil 21

ИГРА 18+

pack

RePack

jed

!!Акция!!

Alien_Rage

RePack

fifa19

RePack

Assassins Creed: Odyssey

RePack

NEED FOR SPEED™ PAYBACK

4 сезон

9 сезон

Бесстыжие 9 сезон

Все сериалы

все сериалы на PB.wtf

RePack

FAR CRY 5
  

Они сражались за Родину (Сергей Бондарчук) [1975, СССР, драма, военный, история, HDTVRip от AVP Studio] полная версия freegat.top

Они сражались за Родину через торрент freegat.top

Раздают: 22 [ 0 KB/s ]
Размер: 1.46 GB | Добавлен: 5 д. назад | Торрент скачан:4 раза
Скачать  

14-01-2020 12:55 Они сражались за Родину Скачать торрент  

Они сражались за Родину
Страна: СССР
Производство: Мосфильм
Жанр: драма, военный, история
Год выпуска: 1975
Продолжительность: 02:30:28

Перевод: не требуется
Оригинальная аудиодорожка: русский
Cубтитры: нет

Режиссер: Сергей Бондарчук

В ролях: Василий Шукшин (озвучание - Игорь Ефимов), Вячеслав Тихонов, Сергей Бондарчук, Георгий Бурков, Юрий Никулин, Иван Лапиков, Николай Губенко, Андрей Ростоцкий, Николай Волков, Николай Шутько, Евгений Самойлов, Нонна Мордюкова, Иннокентий Смоктуновский, Ангелина Степанова, Ирина Скобцева, Татьяна Божок, Лидия Федосеева-Шукшина (озвучание - Наталья Гундарева), Даниил Ильченко, Алексей Ванин, Николай Горлов, Геннадий Сафронов, Борис Никифоров, Анатолий Переверзев, Виталий Леонов, Михаил Чигарев, Станислав Бородокин, Леонид Трутнев, Пётр Меркурьев, Алексей Коняшин, Владимир Мышкин, Юнус Юсупов, Хашим Рахимов, Ермахмад Аралев, Александр Безыментов, Игорь Кузнецов, Виктор Волков, Коля Ефремов, Андрей Попов (текст за кадром)
Об актёрах подробней

Описание: Июль 1942 года, Великая Отечественная война. На подступах к Сталинграду обескровленные, измотанные советские войска ведут тяжелые оборонительные бои, неся огромные потери. Небольшое стрелковое подразделение под командованием капитана Сумскова получило приказ: под огнём вражеской авиации и артиллерии обеспечить переправу через Дон советских воинских частей. На дороге - широкие следы танковых гусениц, чётко отпечатанные в серой пыли. А по сторонам - словно вымершая от зноя степь: устало полёгшие травы, тускло блестящие солончаки, голубое трепетное марево над дальними курганами. Четыре дня стояли насмерть у степного хутора солдаты - Стрельцов, Лопахин, Звягинцев - люди мирных профессий, которых война заставила надеть шинели...

Исходник: HDTV 1080i
Тип релиза: HDTVRip
Контейнер: AVI

Видео: 720x464 (1,56:1), 25 fps, XviD ~ 1248 kbps avg, 0.149 bit/pixel
Аудио: 48 kHz, MP3 2.0, 128 kbps

Раздача от:
Общее
Полное имя : Oni.srazhalis.za.Rodinu.1975.HDTVRip-1.46_[Youtracker]_by_AVP Studio.avi
Формат : AVI
Формат/Информация : Audio Video Interleave
Размер файла : 1,46 Гбайт
Продолжительность : 2 ч. 30 м.
Общий поток : 1386 Кбит/сек
Программа кодирования : VirtualDubModRus 1.5.10.2 (build 2542/release)
Библиотека кодирования : VirtualDubMod build 2542/release

Видео
Идентификатор : 0
Формат : MPEG-4 Visual
Профиль формата : Advanced Simple@L5
Параметр BVOP формата : 1
Параметр QPel формата : Нет
Параметр GMC формата : Без точки перехода
Параметр матрицы формата : Выборочная
Идентификатор кодека : XVID
Идентификатор кодека/Подсказка : XviD
Продолжительность : 2 ч. 30 м.
Битрейт : 1248 Кбит/сек
Ширина : 720 пикселей
Высота : 464 пикселя
Соотношение сторон : 1,552
Частота кадров : 25,000 кадров/сек
Цветовое пространство : YUV
Субдискретизация насыщенности : 4:2:0
Битовая глубина : 8 бит
Тип развёртки : Прогрессивная
Метод сжатия : С потерями
Бит/(Пиксели*Кадры) : 0.149
Размер потока : 1,31 Гбайт (90%)
Библиотека кодирования : XviD 65

Аудио
Идентификатор : 1
Формат : MPEG Audio
Версия формата : Version 1
Профиль формата : Layer 3
Идентификатор кодека : 55
Идентификатор кодека/Подсказка : MP3
Продолжительность : 2 ч. 30 м.
Вид битрейта : Постоянный
Битрейт : 128 Кбит/сек
Каналы : 2 канала
Частота : 48,0 КГц
Метод сжатия : С потерями
Размер потока : 138 Мбайт (9%)
Выравнивание : Соединение по промежуткам
Продолжительность промежутка : 40 мс. (1,00 видеокадр)
Время предзагрузки промежутка : 504 мс.
Библиотека кодирования : L3.99r
Настройки программы : -m s -V 4 -q 2 -lowpass 17 -b 128
freegat.top



Скачать Они сражались за Родину через торрент http://s5.hostingkartinok.com/uploads/images/2013/09/a5dcd0ba49169d4957691d04cb49371f.png Скачать фильм Они сражались за Родину через торрент бесплантно в хорошем качестве Описание: Июль 1942 года, Великая Отечественная война. На подступах к Сталинграду обескровленные, измотанные советские войска ведут тяжелые ... 10 10 2
Торрент: Зарегистрирован [2020-01-14 12:55] · скачан: 4 раз
Статус: √ проверено
Размер: 1.46 GB
Как cкачать? Как скачать Они сражались за Родину через торрент | qTorrent

% Раздел Тема Автор DL S | L
Кино СССР [ 2.19 GB ] Они сражались за Родину [1975 СССР военный история HDTVRip-AVC от AVP Studio] полная версия AVP Studio Скачать
39 | 1
Кино СССР [ 4.37 GB ] Они сражались за Родину [1975 СССР военный история HDTVRip 720p от AVP Studio] полная версия AVP Studio Скачать
13 | 1
Кино СССР [ 2.19 GB ] Они сражались за Родину [1975 СССР военный история HDTVRip от AVP Studio] полная версия AVP Studio Скачать
11 | 0
Кино СССР [ 2.05 GB ] Они сражались за Родину [1975 военный DVDRip] ДениС22 Скачать
2 | 0
Кино СССР [ 2.17 GB ] Они сражались за Родину [Полная версия 1975 СССР Военный DVDRip] Notturno Скачать
5 | 0

28-11-2019 20:33  

Отключить всю рекламу на сайте

    Дорогой пользователь! Огромная просьба, поблагодарите релизера, оцените раздачу и оставьте свои комментарий, если Вы скачали Они сражались за Родину через торрент бесплатно! Внесите свою лепту в развитие PiratBit!
    Комментировать посты могут только пользователи прошедшие не сложную регистрацию
    Показать сообщения:    

    Они сражались за Родину через торрент
    Скачать бесплатно Они сражались за Родину
    Они сражались за Родину скачать торрент
    Они сражались за Родину смотреть онлайн
    Cкачать фильм Они сражались за Родину бесплатно
    Они сражались за Родину скачать торрент в хорошем качестве
    Они сражались за Родину смотреть онлайн бесплатно в хорошем качестве


    Вы не можете начинать темы
    Вы не можете отвечать на сообщения
    Вы не можете редактировать свои сообщения
    Вы не можете удалять свои сообщения
    Вы не можете голосовать в опросах
    Вы не можете прикреплять файлы к сообщениям
    Вы можете скачивать файлы