Ссылка на приватное зеркало всего за 1$. Внимание количество ограничено!!!

OK

1+1

iTunes

мы

OK

1

WEB-DLRip

Джокер

Пифагор

Ведьмак / The Witcher сериал

Лицензия

ПШазам

ОК

Оно 2

iTunes

30
pack

Вам бонус

ВАЖНО

!!Акция!!

Alien_RageХит недели

RePack

Resident Evil 21

ИГРА 18+

pack

RePack

jed

!!Акция!!

Alien_Rage

RePack

fifa19

RePack

Assassins Creed: Odyssey

RePack

NEED FOR SPEED™ PAYBACK

4 сезон

9 сезон

Бесстыжие 9 сезон

Все сериалы

все сериалы на PB.wtf

RePack

FAR CRY 5
  

Чужак / The Outsider / Сезон: 1 / Серии: 1-2 из 10 (Эндрю Бернштейн, Джейсон Бейтман, Шарлотта Брандстром) [2020, Триллер, детектив, криминал, WEB-DL 720p] MVO [HDRezka Studio] freegat.top

Чужак через торрент freegat.top

Раздают: 1 [ 0.2 KB/s ]
Размер: 1.71 GB | Добавлен: 3 д. назад | Торрент скачан:2 раза
Скачать  

14-01-2020 14:32 Чужак Скачать торрент  

Чужак | The Outsider
Год выпуска: 2020
Страна: США
Жанр: Триллер, детектив, криминал
Продолжительность: ~ 00:55:00 серия
Перевод: Профессиональный (многоголосый) | HDRezka Studio
Субтитры: русские (на надписи)

Режиссер: Эндрю Бернштейн, Джейсон Бейтман, Шарлотта Брандстром

rating


В ролях: Юл Васкес, Джейсон Бейтман, Джереми Бобб, Синтиа Эриво, Джон Геттье, Марк Менчака, Бен Мендельсон, Джулианна Николсон, Дерек Сесил, Билл Кэмп

Описание: Мужчину обвиняют в убийстве мальчика. Отпечатки пальцев указывают на него, но если верить записям с камер, то он в момент убийства находился в 90 км от места преступления. Детектив, расследующий дело, начинает подозревать, что в случившемся замешано нечто сверхъестественное.

Качество: WEB-DL 720p
Формат: MKV

Видео: 1280x720 at 23.976 fps, MPEG-4 AVC, ~1915 kbps avg
Аудио Russian: 48 kHz, AC3, 2/0 (L,R) ch, ~192 kbps avg |Многоголосый закадровый, студия HDRezka Studio|
скриншот  скриншот  скриншот  скриншот  скриншот  

Общее
Уникальный идентификатор : 82332318037793454609584235790818961725 (0x3DF0A0AEFAD4ADE83A4E4F9DFE79693D)
Полное имя : C:\The.Outsider (2020)\The.Outsider.S01E01.mkv
Формат : Matroska
Версия формата : Version 4 / Version 2
Размер файла : 914 Мбайт
Продолжительность : 59 м. 31 с.
Режим общего битрейта : Переменный
Общий поток : 2148 Кбит/сек
Программа кодирования : Lavf58.20.100
Библиотека кодирования : Lavf58.20.100 / Lavf58.20.100
ErrorDetectionType : Per level 1

Видео
Идентификатор : 1
Формат : AVC
Формат/Информация : Advanced Video Codec
Профиль формата : High@L4.1
Параметр CABAC формата : Да
Параметр RefFrames формата : 1 кадр
Идентификатор кодека : V_MPEG4/ISO/AVC
Продолжительность : 59 м. 31 с.
Вид битрейта : Переменный
Битрейт : 1913 Кбит/сек
Максимальный битрейт : 2000 Кбит/сек
Ширина : 1280 пикселей
Высота : 720 пикселей
Соотношение сторон : 16:9
Режим частоты кадров : Постоянный
Частота кадров : 23,976 (24000/1001) кадра/сек
Цветовое пространство : YUV
Субдискретизация насыщенности : 4:2:0
Битовая глубина : 8 бит
Тип развёртки : Прогрессивная
Бит/(Пиксели*Кадры) : 0.087
Размер потока : 814 Мбайт (89%)
Default : Да
Forced : Нет
DURATION : 00:59:31.276000000

Аудио
Идентификатор : 2
Формат : AC-3
Формат/Информация : Audio Coding 3
Расширение режима : CM (complete main)
Параметр Endianness формата : Big
Идентификатор кодека : A_AC3
Продолжительность : 59 м. 31 с.
Вид битрейта : Постоянный
Битрейт : 192 Кбит/сек
Каналы : 2 канала
Расположение каналов : Front: L R
Частота : 48,0 КГц
Частота кадров : 31,250 кадров/сек (1536 spf)
Метод сжатия : С потерями
Задержка видео : 14 мс.
Размер потока : 81,7 Мбайт (9%)
Язык : Russian
Default : Да
Forced : Нет
DURATION : 00:59:31.287000000

Внимание! Раздача ведётся путём добавления новых серий; при каждом добавлении создаётся новый торрент. Чтобы начать докачку новой серии, пользователям необходимо сделать следующее:
(1) остановить скачивание,
(2) удалить старый торрент у себя из клиента (старые серии удалять не надо),
(3) скачать новый торрент и запустить его у себя в клиенте вместо старого, при этом указать клиенту путь в старую папку куда и должно происходить скачивание новых серий.

Ваш клиент при этом должен произвести хеширование (проверку) старой папки (если не производит сам - помогите ему сделать это), и будет докачивать только те серии которых у вас ещё нет. Старые серии при этом не удаляются, а продолжают раздаваться!

Eсли вы уже удалили старые серии, то предотвратить повторную закачку старых серий можно, отжав галочку в соответсвующих местах при запуске нового торрента. По возможности, желательно не удалять старые серии как можно дольше чтобы релизёр не столько продолжал раздавать старые серии, а смог сконцентрироваться на новых.
freegat.top



Скачать Чужак через торрент https://a.radikal.ru/a07/2001/b9/245f49fe67d9.jpg Скачать фильм Чужак через торрент бесплантно в хорошем качестве Описание: Мужчину обвиняют в убийстве мальчика. Отпечатки пальцев указывают на него, но если верить записям с камер, то он в момент ... 7 10 3
Торрент: Зарегистрирован [2020-01-15 05:49] · скачан: 2 раз
Статус: √ проверено
Размер: 1.71 GB
Как cкачать? Как скачать Чужак через торрент | qTorrent

% Раздел Тема Автор DL S | L
Зарубежные сериалы [ 1.67 GB ] Чужак / The Outsider / Сезон: 1 / Серии: 1-2 из 10 [2020 WEB-DLRip] MVO [NewStudio] bober100 Скачать
1 | 0
Зарубежные сериалы [ 3.58 GB ] Чужак / The Outsider / Сезон: 1 / Серии: 1-2 из 10 [2020 WEB-DL 720p] 4xMVO bober100 Скачать
5 | 2
Зарубежные сериалы [ 2.72 GB ] Чужак / The Outsider / Сезон: 1 / Серии: 1-2 из 10 [2020 WEB-DL 720p] MVO [TVShows] bober100 Скачать
2 | 1
Зарубежные сериалы [ 6.01 GB ] Чужак / The Outsider / Сезон: 1 / Серии: 1-2 из 10 [2020 WEBRip 1080p] [MVO] killermax2013 Скачать
4 | 1
Зарубежные сериалы [ 2.56 GB ] Чужак / The Outsider / Сезон: 1 / Серии: 1-2 из 10 [2020 WEB-DL 720p] MVO [Кравец-Рекордз / Amedia] bober100 Скачать
7 | 0
Зарубежные сериалы [ 5.85 GB ] Чужак / The Outsider / Сезон: 1 / Серии: 1-2 из 10 [2020 WEB-DL 1080p] MVO [Кравец-Рекордз / Amedia] bober100 Скачать
11 | 1
Зарубежные сериалы [ 2.03 GB ] Чужак / The Outsider / Сезон: 1 / Серии: 1-2 из 10 [2020 WEB-DLRip] MVO [Кравец-Рекордз / Amedia] bober100 Скачать
7 | 0

28-11-2019 20:33  

Отключить всю рекламу на сайте

    Дорогой пользователь! Огромная просьба, поблагодарите релизера, оцените раздачу и оставьте свои комментарий, если Вы скачали Чужак через торрент бесплатно! Внесите свою лепту в развитие PiratBit!
    Комментировать посты могут только пользователи прошедшие не сложную регистрацию
    Показать сообщения:    

    Чужак через торрент
    Скачать бесплатно Чужак
    Чужак скачать торрент
    Чужак смотреть онлайн
    Cкачать фильм Чужак бесплатно
    Чужак скачать торрент в хорошем качестве
    Чужак смотреть онлайн бесплатно в хорошем качестве


    Вы не можете начинать темы
    Вы не можете отвечать на сообщения
    Вы не можете редактировать свои сообщения
    Вы не можете удалять свои сообщения
    Вы не можете голосовать в опросах
    Вы не можете прикреплять файлы к сообщениям
    Вы можете скачивать файлы