Ссылка на приватное зеркало всего за 1$. Внимание количество ограничено!!!

iTunes

1+1

iTunes

мы

MV0

1

WEB-DLRip

Джокер

Пифагор

Ведьмак / The Witcher сериал

iTunes

ПШазам

iTunes

Оно 2

iTunes

30
pack

Вам бонус

ВАЖНО

!!Акция!!

Alien_RageХит недели

RePack

Resident Evil 21

ИГРА 18+

pack

RePack

jed

!!Акция!!

Alien_Rage

RePack

fifa19

RePack

Assassins Creed: Odyssey

RePack

NEED FOR SPEED™ PAYBACK

4 сезон

9 сезон

Бесстыжие 9 сезон

Все сериалы

все сериалы на PB.wtf

RePack

FAR CRY 5
  

Идеальный пациент / The Perfect Patient / Quick (Микаэль Хофстрём) [2019, Триллер, BDRip 720p] DUB [iTunes] freegat.top

Идеальный пациент через торрент freegat.top

Раздают: 18 [ 622 KB/s ]
Размер: 7.25 GB | Добавлен: 7 д. назад | Торрент скачан:76 раз
Скачать  

18-01-2020 08:16 Идеальный пациент Скачать торрент  

Идеальный пациент | The Perfect Patient | Quick
Год выпуска: 2019
Страна: Швеция
Студия: Brain Academy, Film i Väst, Nordisk Film
Жанр: Триллер
Продолжительность: 02:11:21
Перевод: Дублированный | iTunes
Субтитры: отсутствуют

Режиссер: Микаэль Хофстрём

rating

В ролях: Йонас Карлссон, Давид Денсик, Альба Аугуст, Сюзанн Рейтер, Линда Ульвеус, Кристофер Вагелин, Това Магнуссон-Норлинг, Даг Малмберг, Магнус Роосманн, Бьёрн Бенгтссон

Описание: Его изощренному уму позавидовал бы сам Ганнибал Лектер. Десятки жертв по всей стране и никаких улик. Единственный свидетель - он сам, сдавшийся на милость правосудия. Что это, муки совести или очередной ход в его чудовищной игре? В клетку со зверем заходит журналист.

Качество: BDRip 720p
Формат: MKV

Видео: MPEG-4 AVC, 1280x480, 6876 Kbit/s, 24 fps
Аудио #01: 48 kHz, AC3, 5.1, 384 Kbps | iTunes | RUS |
Аудио #02: 48 kHz, AC3, 5.1, 640 Kbps | Оригинал | SWE |
скриншот  скриншот  скриншот  скриншот  скриншот  

General
Unique ID : 276279644750683011420481979829160081903 (0xCFD9862A6F42D9B0E703333445ED79EF)
Complete name : E:Video111The.Perfect.Patient.AKA.Quick.2019.BDRip.720p.seleZen.mkv
Format : Matroska
Format version : Version 4
File size : 7.25 GiB
Duration : 2 h 11 min
Overall bit rate : 7 896 kb/s
Movie name : The Perfect Patient / Quick (2019) from селезень
Encoded date : UTC 2020-02-15 21:06:06
Writing application : mkvmerge v40.0.0 ('Old Town Road + Pony') 64-bit
Writing library : libebml v1.3.9 + libmatroska v1.5.2

Video
ID : 1
Format : AVC
Format/Info : Advanced Video Codec
Format profile : High@L4.1
Format settings : CABAC / 13 Ref Frames
Format settings, CABAC : Yes
Format settings, Reference : 13 frames
Codec ID : V_MPEG4/ISO/AVC
Duration : 2 h 11 min
Bit rate : 6 876 kb/s
Width : 1 280 pixels
Height : 480 pixels
Display aspect ratio : 2.667
Frame rate mode : Constant
Frame rate : 24.000 FPS
Color space : YUV
Chroma subsampling : 4:2:0
Bit depth : 8 bits
Scan type : Progressive
Bits/(Pixel*Frame) : 0.466
Stream size : 6.30 GiB (87%)
Title : Encoded by seleZen
Writing library : x264 core 142 r2431+42 c69a006 tMod [8-bit@all X86_64]
Encoding settings : cabac=1 / ref=13 / deblock=1:-2:-2 / analyse=0x3:0x133 / me=umh / subme=10 / psy=1 / fade_compensate=0.00 / psy_rd=1.00:0.00 / mixed_ref=1 / me_range=32 / chroma_me=1 / trellis=2 / 8x8dct=1 / cqm=0 / deadzone=21,11 / fast_pskip=0 / chroma_qp_offset=-2 / threads=24 / lookahead_threads=3 / sliced_threads=0 / nr=0 / decimate=0 / interlaced=0 / bluray_compat=0 / constrained_intra=0 / fgo=0 / bframes=8 / b_pyramid=2 / b_adapt=2 / b_bias=0 / direct=3 / weightb=1 / open_gop=0 / weightp=2 / keyint=240 / keyint_min=24 / scenecut=40 / intra_refresh=0 / rc_lookahead=50 / rc=2pass / mbtree=0 / bitrate=6876 / ratetol=1.0 / qcomp=0.60 / qpmin=0:0:0 / qpmax=51:51:51 / qpstep=4 / cplxblur=20.0 / qblur=0.5 / vbv_maxrate=50000 / vbv_bufsize=62500 / nal_hrd=none / filler=0 / ip_ratio=1.40 / pb_ratio=1.30 / aq=3:0.80 / aq-sensitivity=10.00 / aq-factor=1.00:1.00:1.00 / aq2=0 / aq3=0
Language : English
Default : Yes
Forced : No

Audio #1
ID : 2
Format : AC-3
Format/Info : Audio Coding 3
Commercial name : Dolby Digital
Codec ID : A_AC3
Duration : 2 h 11 min
Bit rate mode : Constant
Bit rate : 384 kb/s
Channel(s) : 6 channels
Channel layout : L R C LFE Ls Rs
Sampling rate : 48.0 kHz
Frame rate : 31.250 FPS (1536 SPF)
Compression mode : Lossy
Stream size : 361 MiB (5%)
Title : iTunes
Language : Russian
Service kind : Complete Main
Default : Yes
Forced : Yes

Audio #2
ID : 3
Format : AC-3
Format/Info : Audio Coding 3
Commercial name : Dolby Digital
Codec ID : A_AC3
Duration : 2 h 11 min
Bit rate mode : Constant
Bit rate : 640 kb/s
Channel(s) : 6 channels
Channel layout : L R C LFE Ls Rs
Sampling rate : 48.0 kHz
Frame rate : 31.250 FPS (1536 SPF)
Compression mode : Lossy
Stream size : 601 MiB (8%)
Title : Original
Language : Swedish
Service kind : Complete Main
Default : No
Forced : No

Menu
00:00:00.000 : sv:Глава 01
00:10:20.292 : sv:Глава 02
00:20:41.875 : sv:Глава 03
00:31:10.958 : sv:Глава 04
00:40:48.333 : sv:Глава 05
00:51:13.292 : sv:Глава 06
01:01:44.667 : sv:Глава 07
01:12:32.417 : sv:Глава 08
01:23:08.500 : sv:Глава 09
01:32:45.667 : sv:Глава 10
01:43:23.417 : sv:Глава 11
01:53:34.292 : sv:Глава 12
02:02:59.625 : sv:Глава 13

freegat.top



Скачать Идеальный пациент через торрент https://img15.lostpic.net/2020/02/15/90120faf0b0d49811997afc6e0887e62.jpg Скачать фильм Идеальный пациент через торрент бесплантно в хорошем качестве Описание: Его изощренному уму позавидовал бы сам Ганнибал Лектер. Десятки жертв по всей стране и никаких улик. Единственный свидетель - он ... 8.5 10 6
Торрент: Зарегистрирован [2020-02-16 04:13] · скачан: 76 раз
Статус: √ проверено
Размер: 7.25 GB
Как cкачать? Как скачать Идеальный пациент через торрент | qTorrent

% Раздел Тема Автор DL S | L
Фильмы [HD 720p, 1080p] (Хороший звук DUB, MVO) [ 11.36 GB ] Идеальный пациент / The Perfect Patient / Quick [2019 BDRip 1080p] bober100 Скачать
27 | 1
Фильмы (Blu-ray, BD-Remux, HDDVD) [ 33.65 GB ] Идеальный пациент / The Perfect Patient / Quick [2019 BD Remux 1080p] bober100 Скачать
6 | 0
Фильмы (WEB-DL 720p, 1080p) [ 4.54 GB ] Идеальный пациент / The Perfect Patient / Quick [2019 WEB-DL 1080p] bober100 Скачать
54 | 1
Фильмы 2019-2020 [DVDrip, WEB-DLRip, HDrip] (DUB, MVO) [ 2.18 GB ] Идеальный пациент / The Perfect Patient / Quick [2019 BDRip] bober100 Скачать
26 | 1
Фильмы 2019-2020 [DVDrip, WEB-DLRip, HDrip] (DUB, MVO) [ 1.46 GB ] Идеальный пациент / The Perfect Patient / Quick [2019 BDRip] bober100 Скачать
25 | 1

28-11-2019 20:33  

Отключить всю рекламу на сайте

    Дорогой пользователь! Огромная просьба, поблагодарите релизера, оцените раздачу и оставьте свои комментарий, если Вы скачали Идеальный пациент через торрент бесплатно! Внесите свою лепту в развитие PiratBit!
    Комментировать посты могут только пользователи прошедшие не сложную регистрацию
    Показать сообщения:    

    Идеальный пациент через торрент
    Скачать бесплатно Идеальный пациент
    Идеальный пациент скачать торрент
    Идеальный пациент смотреть онлайн
    Cкачать фильм Идеальный пациент бесплатно
    Идеальный пациент скачать торрент в хорошем качестве
    Идеальный пациент смотреть онлайн бесплатно в хорошем качестве


    Вы не можете начинать темы
    Вы не можете отвечать на сообщения
    Вы не можете редактировать свои сообщения
    Вы не можете удалять свои сообщения
    Вы не можете голосовать в опросах
    Вы не можете прикреплять файлы к сообщениям
    Вы можете скачивать файлы