Ссылка на приватное зеркало всего за 1$. Внимание количество ограничено!!!

iTunes

1+1

iTunes

мы

MV0

1

WEB-DLRip

Джокер

Пифагор

Ведьмак / The Witcher сериал

iTunes

ПШазам

iTunes

Оно 2

iTunes

30
pack

Вам бонус

ВАЖНО

!!Акция!!

Alien_RageХит недели

RePack

Resident Evil 21

ИГРА 18+

pack

RePack

jed

!!Акция!!

Alien_Rage

RePack

fifa19

RePack

Assassins Creed: Odyssey

RePack

NEED FOR SPEED™ PAYBACK

4 сезон

9 сезон

Бесстыжие 9 сезон

Все сериалы

все сериалы на PB.wtf

RePack

FAR CRY 5
  

Корона / The Crown / Сезон: 2 / Серии: 1-3 из 10 (Бенжамин Карон, Стивен Долдри, Филип Мартин) [2017, драма, история, WEBRip 1080p] MVO [TVShows] freegat.top

Корона через торрент freegat.top

Размер: 5.25 GB | Добавлен: 1 мес. 2 д. назад | Торрент скачан:1 раз
Скачать  

21-01-2020 10:39 Корона Скачать торрент  


Корона | The Crown Год выпуска: 2017
Страна: Великобритания, США
Жанр: драма, история
Продолжительность: 00:56:00
Перевод: Профессиональный многоголосый | TVShows
Субтитры: Английские

Режиссер: Бенжамин Карон, Стивен Долдри, Филип Мартин

rating


В ролях: Дэниэл Беттс, Джеймс Хиллер, Джереми Нортэм, Джаред Харрис, Мартин Бишоп, Рита МакДональд Дампер, Карл Фаррер, Мэтт Смит, Джон Литгоу

Описание: Нередко сериалы посвящают историческим личностям, которые внесли огромный вклад в развитие различных научных сфер деятельности или культуры. Но если сериал посвящают человеку при жизни, то значит он того явно заслужил. В центре внимания истории "Корона" находится британская королева Елизавета Вторая, которая славится своей харизматичной личностью и умением держать страну "на коротком поводке". Перед нами сериал, который рассказывает о состоянии дел британского правительства на момент окончания Второй Мировой Войны. Жизнь сложно назвать простой и беззаботной, поэтому английские высшие чины пытаются поднять с колен ранее величайшую империю.

Качество: WEBRip 1080p
Формат: MKV

Видео: MPEG-4 AVC, 1920x1080, 25 fps, ~2740 kbps
Аудио#1: Русский, AC3, 48 kHz, 6 ch, 384 kbps
Аудио#2: Английский, AC3, 48 kHz, 6 ch, 384 kbps
скриншот  скриншот  скриншот  скриншот  

General
Unique ID : 251823498402024279354469039204240751146 (0xBD73710E7C48D448B70F6D30D3287A2A)
Complete name : The.Crown.S02E01.1080p.TVShows.mkv
Format : Matroska
Format version : Version 4
File size : 1.37 GiB
Duration : 56 min 36 s
Overall bit rate mode : Variable
Overall bit rate : 3 452 kb/s
Encoded date : UTC 2020-01-21 09:04:44
Writing application : mkvmerge v33.1.0 ('Primrose') 64-bit
Writing library : libebml v1.3.7 + libmatroska v1.5.0

Video
ID : 1
Format : AVC
Format/Info : Advanced Video Codec
Format profile : Main@L4
Format settings : CABAC / 3 Ref Frames
Format settings, CABAC : Yes
Format settings, Reference frames : 3 frames
Codec ID : V_MPEG4/ISO/AVC
Duration : 56 min 36 s
Bit rate mode : Variable
Bit rate : 2 740 kb/s
Maximum bit rate : 4 110 kb/s
Width : 1 920 pixels
Height : 1 080 pixels
Display aspect ratio : 16:9
Frame rate mode : Constant
Frame rate : 25.000 FPS
Color space : YUV
Chroma subsampling : 4:2:0
Bit depth : 8 bits
Scan type : Progressive
Bits/(Pixel*Frame) : 0.053
Stream size : 1.06 GiB (78%)
Writing library : x264 core 148
Encoding settings : cabac=1 / ref=3 / deblock=1:0:0 / analyse=0x1:0x111 / me=umh / subme=10 / psy=1 / psy_rd=1.00:0.00 / mixed_ref=1 / me_range=24 / chroma_me=1 / trellis=2 / 8x8dct=0 / cqm=0 / deadzone=21,11 / fast_pskip=1 / chroma_qp_offset=-2 / threads=6 / lookahead_threads=1 / sliced_threads=0 / nr=0 / decimate=1 / interlaced=0 / bluray_compat=0 / stitchable=1 / constrained_intra=0 / bframes=2 / b_pyramid=0 / b_adapt=2 / b_bias=0 / direct=3 / weightb=1 / open_gop=0 / weightp=2 / keyint=50 / keyint_min=26 / scenecut=0 / intra_refresh=0 / rc_lookahead=50 / rc=2pass / mbtree=1 / bitrate=2740 / ratetol=1.0 / qcomp=0.50 / qpmin=6 / qpmax=51 / qpstep=4 / cplxblur=20.0 / qblur=0.5 / vbv_maxrate=4110 / vbv_bufsize=5480 / nal_hrd=vbr / filler=0 / ip_ratio=1.40 / aq=1:1.00
Default : Yes
Forced : No

Audio #1
ID : 2
Format : AC-3
Format/Info : Audio Coding 3
Commercial name : Dolby Digital
Codec ID : A_AC3
Duration : 56 min 36 s
Bit rate mode : Constant
Bit rate : 384 kb/s
Channel(s) : 6 channels
Channel layout : L R C LFE Ls Rs
Sampling rate : 48.0 kHz
Frame rate : 31.250 FPS (1536 SPF)
Compression mode : Lossy
Stream size : 155 MiB (11%)
Title : TVShows
Language : Russian
Service kind : Complete Main
Default : Yes
Forced : Yes

Audio #2
ID : 3
Format : AC-3
Format/Info : Audio Coding 3
Commercial name : Dolby Digital
Codec ID : A_AC3
Duration : 56 min 36 s
Bit rate mode : Constant
Bit rate : 384 kb/s
Channel(s) : 6 channels
Channel layout : L R C LFE Ls Rs
Sampling rate : 48.0 kHz
Frame rate : 31.250 FPS (1536 SPF)
Compression mode : Lossy
Stream size : 155 MiB (11%)
Title : Original
Language : English
Service kind : Complete Main
Default : No
Forced : No

Text
ID : 4
Format : UTF-8
Codec ID : S_TEXT/UTF8
Codec ID/Info : UTF-8 Plain Text
Duration : 16 min 55 s
Bit rate : 7 b/s
Count of elements : 25
Stream size : 904 Bytes (0%)
Title : English
Language : English
Default : No
Forced : No

При каждом добавлении создаётся новый торрент. Чтобы начать докачку новой серии, пользователям необходимо сделать следующее:
остановить скачивание,
удалить старый торрент у себя из клиента (старые серии удалять не надо),
скачать новый торрент и запустить его у себя в клиенте вместо старого, при этом указать клиенту путь в старую папку куда и должно происходить скачивание новых серий.

Ваш клиент при этом должен произвести хеширование (проверку) старой папки (если не производит сам - помогите ему сделать это), и будет докачивать только те серии которых у вас ещё нет. Старые серии при этом не удаляются, а продолжают раздаваться!
Eсли вы уже удалили старые серии, то предотвратить повторную закачку старых серий можно, отжав галочку в соответствующих местах при запуске нового торрента. По возможности, желательно не удалять старые серии как можно дольше чтобы релизёр не столько продолжал раздавать старые серии, а смог сконцентрироваться на новых.
freegat.top



Скачать Корона через торрент https://funkyimg.com/i/2Yr8q.jpg Скачать фильм Корона через торрент бесплантно в хорошем качестве Описание: Нередко сериалы посвящают историческим личностям, которые внесли огромный вклад в развитие различных научных сфер деятельности ... 10 10 2
Торрент: Зарегистрирован [2020-01-21 10:39] · скачан: 1 раз
Статус: √ проверено
Размер: 5.25 GB
Как cкачать? Как скачать Корона через торрент | qTorrent

28-11-2019 20:33  

Отключить всю рекламу на сайте

    Дорогой пользователь! Огромная просьба, поблагодарите релизера, оцените раздачу и оставьте свои комментарий, если Вы скачали Корона через торрент бесплатно! Внесите свою лепту в развитие PiratBit!
    Комментировать посты могут только пользователи прошедшие не сложную регистрацию
    Показать сообщения:    

    Корона через торрент
    Скачать бесплатно Корона
    Корона скачать торрент
    Корона смотреть онлайн
    Cкачать фильм Корона бесплатно
    Корона скачать торрент в хорошем качестве
    Корона смотреть онлайн бесплатно в хорошем качестве


    Вы не можете начинать темы
    Вы не можете отвечать на сообщения
    Вы не можете редактировать свои сообщения
    Вы не можете удалять свои сообщения
    Вы не можете голосовать в опросах
    Вы не можете прикреплять файлы к сообщениям
    Вы можете скачивать файлы