Ссылка на приватное зеркало всего за 1$. Внимание количество ограничено!!!

iTunes

1+1

iTunes

мы

MV0

1

WEB-DLRip

Джокер

Пифагор

Ведьмак / The Witcher сериал

iTunes

ПШазам

iTunes

Оно 2

iTunes

30
pack

Вам бонус

ВАЖНО

!!Акция!!

Alien_RageХит недели

RePack

Resident Evil 21

ИГРА 18+

pack

RePack

jed

!!Акция!!

Alien_Rage

RePack

fifa19

RePack

Assassins Creed: Odyssey

RePack

NEED FOR SPEED™ PAYBACK

4 сезон

9 сезон

Бесстыжие 9 сезон

Все сериалы

все сериалы на PB.wtf

RePack

FAR CRY 5
  

Мио, мой Мио / Mio in the Land of Faraway / Mio min Mio (Владимир Грамматиков) [1987, сказка, приключения, детский, экранизация, WEB-DL 1080p] [DUB] freegat.top

Мио, мой Мио через торрент freegat.top

Раздают: 5 [ 0 KB/s ]
Размер: 3.47 GB | Добавлен: 28 д. назад | Торрент скачан:39 раз
Скачать  

21-01-2020 13:01 Мио, мой Мио Скачать торрент  

Мио, мой Мио / Mio in the Land of Faraway / Mio min Mio Год выпуска: 1987
Страна: Швеция, СССР, Норвегия
Студия: Filmhuset AS, Киностудия им. М. Горького, Nordisk Tonefilm International
Жанр: Сказка, приключения, детский, экранизация
Продолжительность: 01:34:36
Перевод: Профессиональный (дублированный)
Субтитры: русские

Режиссер: Владимир Грамматиков

В ролях: Кристиан Бэйл , Кристофер Ли, Тимоти Боттомс, Сюзанна Йорк, Николас Пиккард, Игорь Ясулович, Свере А. Усдал, Гунилла Ниросс, Андрей Петров (I), Линн Стокке, Андрей Сергеев, Стиг Енгстрем, Жоффрей Стейнс

Описание: Однажды жизнь сироты Боссе, живущего в доме у своих приемных родителей, волшебным образом изменилась. С помощью сказочного духа он оказался в прекрасной стране, где встретил своего отца-короля и стал принцем Мио. Но этой чудесной стране грозит опасность: жестокий рыцарь Като похищает детей и превращает их в птиц, обреченных вечно кружиться над Мертвым озером. Вместе со своим другом Юм-Юмом Мио предстоит сразиться с могучим и беспощадным рыцарем.



Релиз: Невьянск

Тип релиза: WEB-DL 1080p
Контейнер: MKV

Видео: High@L4.1, 1920x1080, 23.976 fps, 5000 kbps
Аудио 1: AAC, 48 kHz, 2 ch, 128 kbps (русский) Советский Дубляж
Аудио 2: AAC, 48 kHz, 2 ch, 192 kbps (английский)
Формат субтитров: softsub (SRT)
Релиз группа: Невьянск
Автор релиза : Infectant
-----------------------------------------------------------------------------------------------
WEB-DL приобретён на Кинопоиск: https://www.kinopoisk.ru/film/5215/watch
General
Unique ID : 79644836647740026787829783969211112973 (0x3BEB099EF2236C2FA625D16895D05E0D)
Complete name : C:\Users\ushen\Desktop\Mio min Mio (1987).mkv
Format : Matroska
Format version : Version 4 / Version 2
File size : 3.47 GiB
Duration : 1 h 34 min
Overall bit rate : 5 252 kb/s
Encoded date : UTC 2018-08-01 08:15:42
Writing application : mkvmerge v25.0.0 ('Prog Noir') 64-bit
Writing library : libebml v1.3.6 + libmatroska v1.4.9

Video
ID : 1
Format : AVC
Format/Info : Advanced Video Codec
Format profile : High@L4.1
Format settings : CABAC / 4 Ref Frames
Format settings, CABAC : Yes
Format settings, ReFrames : 4 frames
Codec ID : V_MPEG4/ISO/AVC
Duration : 1 h 34 min
Bit rate : 5 000 kb/s
Width : 1 920 pixels
Height : 1 080 pixels
Display aspect ratio : 16:9
Frame rate mode : Constant
Frame rate : 25.000 FPS
Color space : YUV
Chroma subsampling : 4:2:0
Bit depth : 8 bits
Scan type : Progressive
Bits/(Pixel*Frame) : 0.096
Stream size : 3.26 GiB (94%)
Writing library : x264 core 148 r2721 72d53ab
Encoding settings : cabac=1 / ref=4 / deblock=1:0:0 / analyse=0x3:0x133 / me=umh / subme=10 / psy=1 / psy_rd=1.00:0.00 / mixed_ref=1 / me_range=24 / chroma_me=1 / trellis=2 / 8x8dct=1 / cqm=0 / deadzone=21,11 / fast_pskip=1 / chroma_qp_offset=-2 / threads=34 / lookahead_threads=5 / sliced_threads=0 / nr=0 / decimate=1 / interlaced=0 / bluray_compat=0 / constrained_intra=0 / bframes=8 / b_pyramid=2 / b_adapt=2 / b_bias=0 / direct=3 / weightb=1 / open_gop=0 / weightp=2 / keyint=50 / keyint_min=5 / scenecut=40 / intra_refresh=0 / rc_lookahead=50 / rc=2pass / mbtree=1 / bitrate=5000 / ratetol=1.0 / qcomp=0.60 / qpmin=0 / qpmax=69 / qpstep=4 / cplxblur=20.0 / qblur=0.5 / vbv_maxrate=5000 / vbv_bufsize=5000 / nal_hrd=none / filler=0 / ip_ratio=1.40 / aq=1:1.00
Default : Yes
Forced : No

Audio #1
ID : 2
Format : AAC
Format/Info : Advanced Audio Codec
Format profile : LC
Codec ID : A_AAC-2
Duration : 1 h 34 min
Bit rate : 128 kb/s
Channel(s) : 2 channels
Channel positions : Front: L R
Sampling rate : 48.0 kHz
Frame rate : 46.875 FPS (1024 SPF)
Compression mode : Lossy
Delay relative to video : -21 ms
Stream size : 86.5 MiB (2%)
Title : Dub
Language : Russian
Default : Yes
Forced : Yes

Audio #2
ID : 3
Format : AAC
Format/Info : Advanced Audio Codec
Format profile : LC
Codec ID : A_AAC-2
Duration : 1 h 34 min
Bit rate : 192 kb/s
Channel(s) : 2 channels
Channel positions : Front: L R
Sampling rate : 44.1 kHz
Frame rate : 43.066 FPS (1024 SPF)
Compression mode : Lossy
Delay relative to video : 2 ms
Stream size : 128 MiB (4%)
Title : Original
Language : English
Default : No
Forced : No

Text
ID : 4
Format : UTF-8
Codec ID : S_TEXT/UTF8
Codec ID/Info : UTF-8 Plain Text
Duration : 1 h 29 min
Bit rate : 56 b/s
Count of elements : 766
Stream size : 36.9 KiB (0%)
Language : Russian
Default : No
Forced : No
скриншот  скриншот  скриншот  
freegat.top



Скачать Мио, мой Мио через торрент https://d.radikal.ru/d37/1807/81/cac83fb16002.jpg Скачать фильм Мио, мой Мио через торрент бесплантно в хорошем качестве Описание: Однажды жизнь сироты Боссе, живущего в доме у своих приемных родителей, волшебным образом изменилась. С помощью сказочного духа ... 10 10 7
Торрент: Зарегистрирован [2020-01-21 13:01] · скачан: 39 раз
Статус: √ проверено
Размер: 3.47 GB
Как cкачать? Как скачать Мио, мой Мио через торрент | qTorrent

% Раздел Тема Автор DL S | L
Фильмы до 2000 г. [ 1.35 GB ] Мио мой мио / Mio in the Land of Faraway/Mio min Mio [1987 DVDRip лицензия] samorezz05 Скачать
1 | 0

28-11-2019 20:33  

Отключить всю рекламу на сайте


21-01-2020 14:53 Мио, мой Мио Скачать торрент  

Вот откуда пошел Гарри Поттер и всякие подобные фэнтези:))freegat.top



21-01-2020 15:32 Мио, мой Мио Скачать торрент  

Кристиан Бэйл - этот маленький засранец, да нифига же не изменился!
Отличный фильм.freegat.top



21-01-2020 19:09 Мио, мой Мио Скачать торрент  

100 раз в детстве смотрелfreegat.top



22-01-2020 09:01 Мио, мой Мио Скачать торрент  

ох уж эти ноющие сопилкиfreegat.top



    Дорогой пользователь! Огромная просьба, поблагодарите релизера, оцените раздачу и оставьте свои комментарий, если Вы скачали Мио, мой Мио через торрент бесплатно! Внесите свою лепту в развитие PiratBit!
    Комментировать посты могут только пользователи прошедшие не сложную регистрацию
    Показать сообщения:    

    Мио, мой Мио через торрент
    Скачать бесплатно Мио, мой Мио
    Мио, мой Мио скачать торрент
    Мио, мой Мио смотреть онлайн
    Cкачать фильм Мио, мой Мио бесплатно
    Мио, мой Мио скачать торрент в хорошем качестве
    Мио, мой Мио смотреть онлайн бесплатно в хорошем качестве


    Вы не можете начинать темы
    Вы не можете отвечать на сообщения
    Вы не можете редактировать свои сообщения
    Вы не можете удалять свои сообщения
    Вы не можете голосовать в опросах
    Вы не можете прикреплять файлы к сообщениям
    Вы можете скачивать файлы