Ссылка на приватное зеркало всего за 1$. Внимание количество ограничено!!!

iTunes

1+1

iTunes

мы

MV0

1

WEB-DLRip

Джокер

Пифагор

Ведьмак / The Witcher сериал

iTunes

ПШазам

iTunes

Оно 2

iTunes

30
pack

Вам бонус

ВАЖНО

!!Акция!!

Alien_RageХит недели

RePack

Resident Evil 21

ИГРА 18+

pack

RePack

jed

!!Акция!!

Alien_Rage

RePack

fifa19

RePack

Assassins Creed: Odyssey

RePack

NEED FOR SPEED™ PAYBACK

4 сезон

9 сезон

Бесстыжие 9 сезон

Все сериалы

все сериалы на PB.wtf

RePack

FAR CRY 5
  

Мост / Сезон: 2 / Серии: 1-4 из 10 (Максим Василенко) [2020, Детектив, триллер, драма, криминал, SATRip] freegat.top

Мост через торрент freegat.top

Раздают: 9 [ 9 KB/s ]
Размер: 2.21 GB | Добавлен: 4 д. назад | Торрент скачан:19 раз
Скачать  

27-01-2020 15:25 Мост Скачать торрент  

Мост
Год выпуска: 2020
Страна: Россия
Жанр: Детектив, триллер, драма, криминал
Продолжительность: 00:42:00
Субтитры: отсутствуют

Режиссер: Максим Василенко



В ролях: Ингеборга Дапкунайте, Михаил Пореченков, Вадим Сквирский, Александр Марушев, Алексей Митин, Алексей Красноцветов, Денис Старков, Татьяна Рябоконь, Гуйдо Кангур, Александр Куйкка, Анна Табанина, Григорий Зельцер, Андрей Финягин, Полина Толстун, Аграфена Петровская, Никита Плащевский, Алёна Савастова, Михаил Разумовский, Владимир Селезнёв (II), Сергей Волков (III), Андрей Лопатенков, Дмитрий Сутырин, Елена Мартыненко, Дмитрий Луговкин, Виктория Малекторович, Кристина Кузьмина, Самвел Мужикян, Полина Дудкина, Никита Волков, София Никифорова, Анастасия Тюнина, Наталья Иохвидова, Алиса Миронова, Сергей Маркеев, Глеб Темнов, Василий Гузов, Олег Фёдоров (III), Валентина Иккерт, Людмила Никольская, Валерий Кувакин, Алексей Фролов (II), Никита Чеканов

Описание: Российская версия популярного шведско-датского детективного сериала "Мост". После событий первого сезона проходит год. Вcе пpecтyплeния проuсxoдят в Сaнкт-Петеpбурге. Площaдкой, нa которой случается новoe преступление, становиться Вантовый мост через Петровский канал, расположенный между Васильевским островом и Комендантским проспектом. Телевидение Санкт-Петербурга рассказывает о новом преступлении: на прогулочном катере обнаружена странная композиция - три манекена и женский труп. В убитой опознают Марту Андерсаа, сотрудницу консульства Эстонии в Петербурге. Поскольку убита гражданка Эстонии, создаётся совместная следственно-оперативная группа, которую возглавляют Инга Веермаа и Максим Казанцев. Им предстоит схватка с загадочным серийным убийцей, неуловимым и непредсказуемым Инсталлятором, чьи композиции убийств похожи на картины, представленные в художественной галерее известного миллионера…

Качество: SATRip
Формат: AVI

Видео: XviD, ~ 1628 Кбит/с, 720x304, 25 кадр/с
Аудио: 48.0 kHz, AC3 Dolby Digital, 2/0 (L,R) ch, ~ 192 kbps
скриншот   скриншот   скриншот   скриншот   скриншот  

General
Complete name : C:11.Мост.s02.E01.(2017-2018).SATRip.by.Nicodem.Files-x.avi
Format : AVI
Format/Info : Audio Video Interleave
File size : 550 MiB
Duration : 42mn 2s
Overall bit rate : 1 830 Kbps
Writing application : VirtualDubMod 1.5.10.3 | www.virtualdub-fr.org || (build 2550/release)
Writing library : VirtualDubMod build 2550/release

Video
ID : 0
Format : MPEG-4 Visual
Format profile : Advanced Simple@L5
Format settings, BVOP : 1
Format settings, QPel : No
Format settings, GMC : No warppoints
Format settings, Matrix : Custom
Codec ID : XVID
Codec ID/Hint : XviD
Duration : 42mn 2s
Bit rate : 1 628 Kbps
Width : 720 pixels
Height : 304 pixels
Display aspect ratio : 2.35:1
Frame rate : 25.000 fps
Color space : YUV
Chroma subsampling : 4:2:0
Bit depth : 8 bits
Scan type : Progressive
Compression mode : Lossy
Bits/(Pixel*Frame) : 0.298
Stream size : 490 MiB (89%)
Writing library : XviD 73

Audio
ID : 1
Format : AC-3
Format/Info : Audio Coding 3
Mode extension : CM (complete main)
Codec ID : 2000
Duration : 42mn 2s
Bit rate mode : Constant
Bit rate : 192 Kbps
Channel(s) : 2 channels
Channel positions : Front: L R
Sampling rate : 48.0 KHz
Bit depth : 16 bits
Compression mode : Lossy
Stream size : 57.7 MiB (10%)
Alignment : Split accross interleaves
Interleave, duration : 40 ms (1.00 video frame)
Interleave, preload duration : 500 ms

Раздача ведётся путём добавления новых серий, при каждом добавлении создаётся новый торрент. Чтобы начать докачку новой серии, пользователям необходимо сделать следующее:

- Остановить скачивание.
- Удалить старый торрент у себя из клиента (старые серии удалять не надо).
- Скачать новый торрент и запустить его у себя в клиенте вместо старого, при этом указать клиенту путь в старую папку куда и должно происходить скачивание новых серий.

Ваш клиент при этом должен произвести хеширование (проверку) старой папки (если не производит сам - помогите ему сделать это), и будет докачивать только те серии которых у вас ещё нет. Старые серии при этом не удаляются, а продолжают раздаваться!
Если вы уже удалили старые серии, то предотвратить повторную закачку старых серий можно, отжав галочку в соответствующих местах при запуске нового торрента. По возможности, желательно не удалять старые серии как можно дольше, чтобы релизер не столько продолжал раздавать старые серии, а смог сконцентрироваться на новых.
freegat.top



Скачать Мост через торрент http://lostpix.com/img/2020-01/27/dfaizx7gosngbk0es8qn05bew.jpg Скачать фильм Мост через торрент бесплантно в хорошем качестве Описание: Российская популярного шведско-датского детективного сериала "Мост". После событий первого сезона проходит год. Вcе ... 7.7 10 6
Торрент: Зарегистрирован [2020-02-14 00:47] · скачан: 19 раз
Статус: √ проверено
Размер: 2.21 GB
Как cкачать? Как скачать Мост через торрент | qTorrent

28-11-2019 20:33  

Отключить всю рекламу на сайте

    Дорогой пользователь! Огромная просьба, поблагодарите релизера, оцените раздачу и оставьте свои комментарий, если Вы скачали Мост через торрент бесплатно! Внесите свою лепту в развитие PiratBit!
    Комментировать посты могут только пользователи прошедшие не сложную регистрацию
    Показать сообщения:    

    Мост через торрент
    Скачать бесплатно Мост
    Мост скачать торрент
    Мост смотреть онлайн
    Cкачать фильм Мост бесплатно
    Мост скачать торрент в хорошем качестве
    Мост смотреть онлайн бесплатно в хорошем качестве


    Вы не можете начинать темы
    Вы не можете отвечать на сообщения
    Вы не можете редактировать свои сообщения
    Вы не можете удалять свои сообщения
    Вы не можете голосовать в опросах
    Вы не можете прикреплять файлы к сообщениям
    Вы можете скачивать файлы