Ссылка на приватное зеркало всего за 1$. Внимание количество ограничено!!!

iTunes

1+1

iTunes

мы

MV0

1

WEB-DLRip

Джокер

Пифагор

Ведьмак / The Witcher сериал

iTunes

ПШазам

iTunes

Оно 2

iTunes

30
pack

Вам бонус

ВАЖНО

!!Акция!!

Alien_RageХит недели

RePack

Resident Evil 21

ИГРА 18+

pack

RePack

jed

!!Акция!!

Alien_Rage

RePack

fifa19

RePack

Assassins Creed: Odyssey

RePack

NEED FOR SPEED™ PAYBACK

4 сезон

9 сезон

Бесстыжие 9 сезон

Все сериалы

все сериалы на PB.wtf

RePack

FAR CRY 5
  

Во имя справедливости / Out For Justice (Джон Флинн) [1991 г., Боевик, триллер, драма, криминал, BDRip 720p / 60 FPS, Дубляж ] от R.G. HD-Films freegat.top

Во имя справедливости через торрент freegat.top

Раздают: 3 [ 0 KB/s ]
Размер: 2.53 GB | Добавлен: 26 д. назад | Торрент скачан:31 раз
Скачать  

02-02-2020 17:32 Во имя справедливости Скачать торрент  

Во имя справедливости / Out For Justice
Год выпуска: 1991
Страна: США
Жанр: Боевик, триллер, драма, криминал
Продолжительность: 01:31:24
Перевод: Дубляж
Субтитры: Russian, English

Режиссер: Джон Флинн

Бюджет: $14 000 000
Премьера в мире: 12 апреля 1991

rating

В ролях: Стивен Сигал, Уильям Форсайт, Джерри Орбак, Джо Чампа, Шэрин Митчелл, Сэл Ричардс, Джина Гершон, Джей Аковоне, Ник Корелло, Роберт ЛаСардо

Описание: Место действия — Бруклин, время — наши дни. Полицейский Джино Фелино родился и вырос здесь. На его веку многое изменилось, но некоторые перемены он признавать не собирается. Товарищ по детским играм теперь — на другой стороне. Он превратил местные улицы в зоны боевых действий.
Сильнее всего на свете Джино желал бы отправить этого сорвавшегося с цепи пса в школу вечного послушания. Но сначала его нужно поймать


Качество: BDRip 720p / 60 FPS
Формат: MKV
Видео кодек: H.264
Аудио кодек: AC3
Видео: x264, 1280 x 536 ( 2,40:1 ), 3575 kbps, 60,000 fps, ( 0.087 bpp)
Аудио#1: Русский, AC-3, 48.0 KHz, 6 ch, 384 Kbps ( Dub Most video )
Релиз от:

скриншот   скриншот   скриншот   скриншот   скриншот  Автор рипа: slaventi-69
x264 [info]: frame I:1827 Avg QP:14.77 size: 72064
x264 [info]: frame P:75937 Avg QP:17.51 size: 18297
x264 [info]: frame B:250974 Avg QP:20.77 size: 3695
x264 [info]: consecutive B-frames: 2.1% 2.6% 6.5% 10.9% 71.9% 6.0%


Общее
Уникальный идентификатор : 54180851615494924489069136015308056364 (0x28C2DA3A6AADCA6C2EAFC929FF23672C)
Полное имя : F:\Out.For.Justice.(1991).BDRip.720p.(60 Fps).mkv
Формат : Matroska
Версия формата : Version 4
Размер файла : 2,53 Гбайт
Продолжительность : 1 ч. 31 м.
Общий поток : 3963 Кбит/сек
Название фильма : Во имя справедливости / Out For Justice (1991) BDRip 720p (60 Fps)
Дата кодирования : UTC 2020-02-01 17:24:26
Программа кодирования : mkvmerge v42.0.0 ('Overtime') 64-bit
Библиотека кодирования : libebml v1.3.10 + libmatroska v1.5.2

Видео
Идентификатор : 1
Формат : AVC
Формат/Информация : Advanced Video Codec
Профиль формата : High@L4.1
Настройки формата : CABAC / 8 Ref Frames
Параметр CABAC формата : Да
Параметр RefFrames формата : 8 кадров
Идентификатор кодека : V_MPEG4/ISO/AVC
Продолжительность : 1 ч. 31 м.
Битрейт : 3575 Кбит/сек
Ширина : 1280 пикселей
Высота : 536 пикселей
Соотношение сторон : 2,40:1
Режим частоты кадров : Постоянный
Частота кадров : 60,000 кадров/сек
Цветовое пространство : YUV
Субдискретизация насыщенности : 4:2:0
Битовая глубина : 8 бит
Тип развёртки : Прогрессивная
Бит/(Пиксели*Кадры) : 0.087
Размер потока : 2,28 Гбайт (90%)
Заголовок : slaventi-69 ( R.G. HD-Films | 60 fps )
Библиотека кодирования : x264 core 130 r2273 b3065e6
Настройки программы : cabac=1 / ref=8 / deblock=1:-1:-1 / analyse=0x3:0x133 / me=umh / subme=9 / psy=1 / psy_rd=1.00:0.00 / mixed_ref=1 / me_range=26 / chroma_me=1 / trellis=2 / 8x8dct=1 / cqm=0 / deadzone=21,11 / fast_pskip=0 / chroma_qp_offset=-2 / threads=10 / lookahead_threads=8 / sliced_threads=0 / nr=0 / decimate=1 / interlaced=0 / bluray_compat=0 / constrained_intra=0 / bframes=5 / b_pyramid=2 / b_adapt=2 / b_bias=0 / direct=3 / weightb=1 / open_gop=0 / weightp=2 / keyint=250 / keyint_min=25 / scenecut=40 / intra_refresh=0 / rc_lookahead=50 / rc=crf / mbtree=1 / crf=16.0 / qcomp=0.60 / qpmin=0 / qpmax=69 / qpstep=4 / ip_ratio=1.40 / aq=1:1.00
Язык : English
Default : Да
Forced : Нет

Аудио
Идентификатор : 2
Формат : AC-3
Формат/Информация : Audio Coding 3
Коммерческое название : Dolby Digital
Идентификатор кодека : A_AC3
Продолжительность : 1 ч. 31 м.
Вид битрейта : Постоянный
Битрейт : 384 Кбит/сек
Каналы : 6 каналов
Channel layout : L R C LFE Ls Rs
Частота : 48,0 КГц
Частота кадров : 31,250 кадров/сек (1536 SPF)
Битовая глубина : 16 бит
Метод сжатия : С потерями
Размер потока : 251 Мбайт (10%)
Заголовок : Dub, Most video
Язык : Russian
ServiceKind/String : Complete Main
Default : Да
Forced : Нет

Текст #1
Идентификатор : 3
Формат : UTF-8
Идентификатор кодека : S_TEXT/UTF8
Идентификатор кодека/Информация : UTF-8 Plain Text
Продолжительность : 1 ч. 27 м.
Битрейт : 72 бит/сек
ElementCount : 932
Размер потока : 46,4 Кбайт (0%)
Язык : Russian
Default : Нет
Forced : Нет

Текст #2
Идентификатор : 4
Формат : UTF-8
Идентификатор кодека : S_TEXT/UTF8
Идентификатор кодека/Информация : UTF-8 Plain Text
Продолжительность : 1 ч. 25 м.
Битрейт : 48 бит/сек
ElementCount : 896
Размер потока : 30,6 Кбайт (0%)
Язык : English
Default : Нет
Forced : Нет

Меню
00:00:00.000 : en:A Pimp's Comeuppance
00:03:39.802 : en:Tonight's Plans
00:07:18.020 : en:An Unmarked and a Shotgun
00:12:15.484 : en:The Mob Gets Mad
00:15:41.231 : en:Surprise Package (No Sleep Till Brooklyn)
00:19:04.017 : en:Hot Pursuit
00:21:40.716 : en:The Butcher Shop
00:24:09.823 : en:Buying Dog Food
00:27:15.550 : en:Mr. and Mrs. Madano
00:29:59.923 : en:Rica Says Yes
00:31:42.650 : en:Gino Plays Pool
00:38:11.122 : en:Neighborhood Montage (Shake the Firm)
00:41:41.040 : en:Breaking with Don Vittorio
00:45:00.656 : en:Patti's Place
00:51:23.121 : en:Chop-Shop Carnage
00:55:31.453 : en:A Truer Picture
00:56:48.321 : en:Memories with Vicky
01:02:18.484 : en:Gino's Place Under Siege
01:05:32.094 : en:More From Terry Malloy
01:08:03.621 : en:Poolroom Massacre
01:11:07.888 : en:"Ain't Pretty"
01:13:42.418 : en:Richie's Going-Away Party
01:17:30.145 : en:Gino Storms the House
01:22:31.196 : en:The Final Battle
01:25:35.130 : en:The "Animal-Lover's" Comeuppance
01:27:00.256 : en:End Credits (Don't Stand in My Way)

Просьба к переливающим на другие сайты, в оформлении указывайте пожалуйста авторство группы R.G. HD-Films freegat.top



Скачать Во имя справедливости через торрент http://i91.fastpic.ru/big/2018/0925/e4/05feb490b85bbcf866ac27d8e78320e4.png Скачать фильм Во имя справедливости через торрент бесплантно в хорошем качестве Описание: Место действия — Бруклин, время — наши дни. Полицейский Джино Фелино родился и вырос здесь. На его веку многое изменилось, но ... 9.9 10 7
Торрент: Зарегистрирован [2020-02-02 17:32] · скачан: 31 раз
Статус: √ проверено
Размер: 2.53 GB
Как cкачать? Как скачать Во имя справедливости через торрент | qTorrent

28-11-2019 20:33  

Отключить всю рекламу на сайте

02-02-2020 19:23 Во имя справедливости Скачать торрент  

slaventi-69, спасибо! А продолжение будет? Нико и т.п.?freegat.top



02-02-2020 19:37 Во имя справедливости Скачать торрент  

Парочку будет скоро.freegat.top



03-02-2020 05:26 Во имя справедливости Скачать торрент  

спс, старый добрый боевик Нико!!! жду продолжения...freegat.top



03-02-2020 12:33 Во имя справедливости Скачать торрент  

Оооооо-привет из видеосалона!!! freegat.top



04-02-2020 18:04 Во имя справедливости Скачать торрент  

Над законом и смерти вопреки тоже неплохие шедевры!freegat.top



05-02-2020 15:04 Во имя справедливости Скачать торрент  

Помеченный смертью и Бруклинская резня тоже вещи годные. Автору большое спасибо за труды!!!freegat.top



05-02-2020 15:57 Во имя справедливости Скачать торрент  

Смотрите в удовольствие.freegat.top



    Дорогой пользователь! Огромная просьба, поблагодарите релизера, оцените раздачу и оставьте свои комментарий, если Вы скачали Во имя справедливости через торрент бесплатно! Внесите свою лепту в развитие PiratBit!
    Комментировать посты могут только пользователи прошедшие не сложную регистрацию
    Показать сообщения:    

    Во имя справедливости через торрент
    Скачать бесплатно Во имя справедливости
    Во имя справедливости скачать торрент
    Во имя справедливости смотреть онлайн
    Cкачать фильм Во имя справедливости бесплатно
    Во имя справедливости скачать торрент в хорошем качестве
    Во имя справедливости смотреть онлайн бесплатно в хорошем качестве


    Вы не можете начинать темы
    Вы не можете отвечать на сообщения
    Вы не можете редактировать свои сообщения
    Вы не можете удалять свои сообщения
    Вы не можете голосовать в опросах
    Вы не можете прикреплять файлы к сообщениям
    Вы можете скачивать файлы