Ссылка на приватное зеркало всего за 1$. Внимание количество ограничено!!!

iTunes

1+1

iTunes

мы

MV0

1

WEB-DLRip

Джокер

Пифагор

Ведьмак / The Witcher сериал

iTunes

ПШазам

iTunes

Оно 2

iTunes

30
pack

Вам бонус

ВАЖНО

!!Акция!!

Alien_RageХит недели

RePack

Resident Evil 21

ИГРА 18+

pack

RePack

jed

!!Акция!!

Alien_Rage

RePack

fifa19

RePack

Assassins Creed: Odyssey

RePack

NEED FOR SPEED™ PAYBACK

4 сезон

9 сезон

Бесстыжие 9 сезон

Все сериалы

все сериалы на PB.wtf

RePack

FAR CRY 5
  

К дню рождения Владимира Высоцкого. «Своя колея» (Первый канал) [2020 г., Концерт, HDTV (1080i)] freegat.top

К дню рождения Владимира Высоцкого. «Своя колея» через торрент freegat.top

Раздают: 1 [ 0 KB/s ]
Размер: 4.74 GB | Добавлен: 22 д. назад | Торрент скачан:14 раз
Скачать  

04-02-2020 20:19 К дню рождения Владимира Высоцкого. «Своя колея» Скачать торрент  

К дню рождения Владимира Высоцкого. «Своя колея»
Год выпуска: 2020
Страна: Россия
Жанр: Концерт
Продолжительность: 01:11:43
Субтитры: НЕТ

Режиссер: Первый канал

Описание: Ежегодная Премия Владимира Высоцкого «Своя колея» была учреждена в 1997 году Благотворительным Фондом Владимира Высоцкого, Министерством Культуры РФ и Комитетом по культуре города Москвы. Лауреатами Премии становятся те, кто не изменяет своим убеждениям, кому сегодня захотел бы посвятить песню Владимир Высоцкий, людям, чья жизнь и творчество созвучны темам его поэзии. Главным критерием в определении Лауреатов являются люди, способные твердо следовать в жизни своей колее, несмотря ни на какие препятствия и повороты судьбы. На торжественном вечере, по традиции, прозвучат песни Высоцкого в исполнении известных музыкантов, актеров, деятелей культуры и искусства. В концертной части принимают участие: Александр Яцко, Сергей Безруков, Зара, Юлия Савичева, Анатолий Белый, Диана Арбенина, Эмиль Кадыров, Глеб Самойлов, Любовь Успенская, Ольга Кормухина, Гоша Куценко, Песни нашего века, Михаил Ефремов, Александр Маршал, Олег Митяев, Екатерина Гусева, Дмитрий Харатьян, Сергей Галанин, Дмитрий Дюжев, Елена Север, Александр Ф. Скляр, Александр Домогаров, Анастасия Макеева, Тамара Гвердцители, Евгений Дятлов.

Качество: HDTV (1080i)
Формат: TS
Видео кодек: AVC
Аудио кодек: AC3-MP2
Видео: MPEG-4 AVC, (1920x1080),8376 Кбит/с, 25.000 кадра/сек
Аудио#1: AC3, 6 ch, 384 kbps (Rus) 48.0 KHz Оригинал
Аудио#2: MP2, 2 ch, 224 kbps (Rus) 48.0 KHz Оригинал
скриншот   скриншот   скриншот  

Имя файла: Своя колея 2020.ts
Формат файла: .ts (MPEG-TS)
Размер файла: 4,74 GB (5 090 377 864 bytes)
Длительность: 1h 11mn
Навигация по главам: Есть
Битрейт (все потоки): 9 457 Kbps
Тип битрейта (все потоки): Variable
Обложка: Отсутствует
:
Название: Своя колея 2020
:
Тип потока: Видео
Длительность: 01:11:45
Кодек: AVC
Кодек/описание: Advanced Video Codec
Кодек/профиль: High@L4.0
Кодек/ID: 27
Кодек/CABAC: Yes
Кодек/ReFrames: 3 frames
Размеры изображения: 1920 x 1080 (16:9)
Частота кадров: 25.000 fps
Размер потока: 4.20 GiB (89%)
Битрейт: 8 376 Kbps
Стандарт: Component
Цветовое пространство: YUV
Тип развёртки: Interlaced
Колориметрия: 4:2:0
Глубина: 8 bits
:
Тип потока: Звук #1
Язык: Russian
Длительность: 01:11:45.856
Кодек: AC-3
Кодек/описание: Audio Coding 3
Кодек/ID: 6
Частота дискретизации: 48.0 KHz
Каналов: 6 channels
Битрейт: 384 Kbps
Битрейт/тип: Constant
Размер потока: 197 MiB (4%)
Глубина: 16 bits
Метод сжатия: Lossy
:
Тип потока: Звук #2
Язык: Russian
Длительность: 01:11:45.888
Кодек: MPEG Audio
Кодек/профиль: Layer 2
Кодек/ID: 3
Частота дискретизации: 48.0 KHz
Каналов: 2 channels
Битрейт: 224 Kbps
Битрейт/тип: Constant
Размер потока: 115 MiB (2%)
Метод сжатия: Lossy

freegat.top



Скачать К дню рождения Владимира Высоцкого. «Своя колея» через торрент http://pic1.kartinco.top/images/12/oxwwi.jpg Скачать фильм К дню рождения Владимира Высоцкого. «Своя колея» через торрент бесплантно в хорошем качестве Описание: Ежегодная Премия Владимира Высоцкого «Своя колея» была учреждена в 1997 году Благотворительным Фондом Владимира Высоцкого, ... 10 10 2
Торрент: Зарегистрирован [2020-02-04 20:19] · скачан: 14 раз
Статус: √ проверено
Размер: 4.74 GB
Как cкачать? Как скачать К дню рождения Владимира Высоцкого. «Своя колея» через торрент | qTorrent

28-11-2019 20:33  

Отключить всю рекламу на сайте

    Дорогой пользователь! Огромная просьба, поблагодарите релизера, оцените раздачу и оставьте свои комментарий, если Вы скачали К дню рождения Владимира Высоцкого. «Своя колея» через торрент бесплатно! Внесите свою лепту в развитие PiratBit!
    Комментировать посты могут только пользователи прошедшие не сложную регистрацию
    Показать сообщения:    

    К дню рождения Владимира Высоцкого. «Своя колея» через торрент
    Скачать бесплатно К дню рождения Владимира Высоцкого. «Своя колея»
    К дню рождения Владимира Высоцкого. «Своя колея» скачать торрент
    К дню рождения Владимира Высоцкого. «Своя колея» смотреть онлайн
    Cкачать фильм К дню рождения Владимира Высоцкого. «Своя колея» бесплатно
    К дню рождения Владимира Высоцкого. «Своя колея» скачать торрент в хорошем качестве
    К дню рождения Владимира Высоцкого. «Своя колея» смотреть онлайн бесплатно в хорошем качестве


    Вы не можете начинать темы
    Вы не можете отвечать на сообщения
    Вы не можете редактировать свои сообщения
    Вы не можете удалять свои сообщения
    Вы не можете голосовать в опросах
    Вы не можете прикреплять файлы к сообщениям
    Вы можете скачивать файлы