Ссылка на приватное зеркало всего за 1$. Внимание количество ограничено!!!

iTunes

1+1

iTunes

мы

MV0

1

WEB-DLRip

Джокер

Пифагор

Ведьмак / The Witcher сериал

iTunes

ПШазам

iTunes

Оно 2

iTunes

30
pack

Вам бонус

ВАЖНО

!!Акция!!

Alien_RageХит недели

RePack

Resident Evil 21

ИГРА 18+

pack

RePack

jed

!!Акция!!

Alien_Rage

RePack

fifa19

RePack

Assassins Creed: Odyssey

RePack

NEED FOR SPEED™ PAYBACK

4 сезон

9 сезон

Бесстыжие 9 сезон

Все сериалы

все сериалы на PB.wtf

RePack

FAR CRY 5
  

Последний герой. Зрители против Звезд / Сезон: 8 / Серии: 1-2 из 13 [2020, реалити-шоу, WEB-DL 720p] freegat.top

Последний герой. Зрители против Звезд через торрент freegat.top

Раздают: 13 [ 341 KB/s ] Качают: 4 [ 0 KB/s ]
Размер: 3.25 GB | Добавлен: 2 д. 3 ч. назад | Торрент скачан:28 раз
Скачать  

08-02-2020 19:06 Последний герой. Зрители против Звезд Скачать торрент  

Последний герой. Зрители против Звезд

Дата/Год выпуска: 2020
Страна: Россия
Жанр: реалити-шоу
Продолжительность: 01:30:00
Перевод: Не требуется
Телеканал: ТВ-3

Ведущая: Яна Троянова

Участники: Племя звезд: Наталья Бардо, Эрик Давидыч, Лукерья Ильяшенко, Надежда Ангарская, Алексей Воевода, Птаха, Евгений Папунаишвили, Елена Проклова.

Племя зрителей: Игорь Жук, Элина Пашковская, Наталья Филиппова, Михаил Еремеев, Александр Ложкин, Наталья Хапугина, Владлена Веселова, Димитрий Павлюк.


Описание: Легендарное реалити "Последний герой" возвращается! В новом сезоне самого успешного проекта ТВ-3 случится то, что полностью перевернёт правила игры. Против звёзд выступят обычные зрители. Они проверят на честность легендарный проект, сразятся против знаменитостей и испытают на себе все трудности жизни на острове. Всё будет на сто процентов по-настоящему! "Последний герой. Зрители против звёзд" с Яной Трояновой.

Sample

Качество: WEB-DL 720p - Files-x
Формат: MKV
Видео: MPEG4 AVC Video, H264, 16:9, 1280x720, 25 fps, ~3000 kbps
Аудио: AC3, 44,1 kHz, 2/0 (L,R) ch, 192 kbps
Раздача ведётся путём добавления новых серий, при каждом добавлении создаётся новый торрент. Чтобы начать докачку новой серии, пользователям необходимо сделать следующее:

- Остановить скачивание.
- Удалить старый торрент у себя из клиента (старые серии удалять не надо).
- Скачать новый торрент и запустить его у себя в клиенте вместо старого, при этом указать клиенту путь в старую папку куда и должно происходить скачивание новых серий.

Ваш клиент при этом должен произвести хеширование (проверку) старой папки (если не производит сам - помогите ему сделать это), и будет докачивать только те серии которых у вас ещё нет. Старые серии при этом не удаляются, а продолжают раздаваться!
Если вы уже удалили старые серии, то предотвратить повторную закачку старых серий можно, отжав галочку в соответствующих местах при запуске нового торрента. По возможности, желательно не удалять старые серии как можно дольше, чтобы релизер не столько продолжал раздавать старые серии, а смог сконцентрироваться на новых.
General
Unique ID : 202066927647736961011542880266099074726 (0x9804ACB759CB620BA1B5A3C9A853A6A6)
Complete name : D:\Последний герой. Зрители против Звезд. S02 .2020 WEB-DL 720p. Files-x\01. Последний герой. Зрители против Звезд. S02 .2020 WEB-DL 720p. Files-x.mkv
Format : Matroska
Format version : Version 2
File size : 2.00 GiB
Duration : 1 h 30 min
Overall bit rate mode : Variable
Overall bit rate : 3 188 kb/s
Encoded date : UTC 2020-02-08 17:41:07
Writing application : mkvmerge v7.8.0 ('River Man') 32bit built on Apr 3 2015 12:11:22
Writing library : libebml v1.3.1 + libmatroska v1.4.2

Video
ID : 1
Format : AVC
Format/Info : Advanced Video Codec
Format profile : High@L3.1
Format settings : CABAC / 1 Ref Frames
Format settings, CABAC : Yes
Format settings, ReFrames : 1 frame
Format settings, GOP : M=1, N=50
Codec ID : V_MPEG4/ISO/AVC
Duration : 1 h 30 min
Bit rate mode : Variable
Bit rate : 2 932 kb/s
Maximum bit rate : 3 000 kb/s
Width : 1 280 pixels
Height : 720 pixels
Display aspect ratio : 16:9
Frame rate mode : Constant
Frame rate : 25.000 FPS
Color space : YUV
Chroma subsampling : 4:2:0
Bit depth : 8 bits
Scan type : Progressive
Bits/(Pixel*Frame) : 0.127
Stream size : 1.84 GiB (92%)
Default : Yes
Forced : No

Audio
ID : 2
Format : AC-3
Format/Info : Audio Coding 3
Codec ID : A_AC3
Duration : 1 h 30 min
Bit rate mode : Constant
Bit rate : 192 kb/s
Channel(s) : 2 channels
Channel positions : Front: L R
Sampling rate : 44.1 kHz
Frame rate : 28.711 FPS (1536 SPF)
Bit depth : 16 bits
Compression mode : Lossy
Stream size : 124 MiB (6%)
Service kind : Complete Main
Default : Yes
Forced : No
freegat.top



Скачать Последний герой. Зрители против Звезд через торрент https://i111.fastpic.ru/big/2020/0208/e5/a47efdbb9eb23105d7d7cda390f7b6e5.jpg Скачать фильм Последний герой. Зрители против Звезд через торрент бесплантно в хорошем качестве Описание: Легендарное реалити "Последний герой" возвращается! В новом сезоне самого успешного проекта ТВ-3 случится то, что полностью ... 7 10 3
Info! Серебряная раздача, засчитывается только 50% скачанного.
Торрент: Зарегистрирован [2020-02-16 12:19] · скачан: 28 раз
Статус: T временная
Размер: 3.25 GB
Как cкачать? Как скачать Последний герой. Зрители против Звезд через торрент | qTorrent



Последний раз редактировалось: killermax2013 (2020-02-16 12:19), всего редактировалось 1 раз

28-11-2019 20:33  

Отключить всю рекламу на сайте

09-02-2020 08:51 Последний герой. Зрители против Звезд Скачать торрент  

Эрик Давидыч!!
Все с фамилиями а этого царька аж такfreegat.top



11-02-2020 11:18 Последний герой. Зрители против Звезд Скачать торрент  

killermax2013,
Спасибоооооо!!!!! freegat.top



16-02-2020 10:37 Последний герой. Зрители против Звезд Скачать торрент  

да там царьков хватает)) спасибо !!!!freegat.top



16-02-2020 17:21 Последний герой. Зрители против Звезд Скачать торрент  

На голосовании музыка из Героев 3))freegat.top



    Дорогой пользователь! Огромная просьба, поблагодарите релизера, оцените раздачу и оставьте свои комментарий, если Вы скачали Последний герой. Зрители против Звезд через торрент бесплатно! Внесите свою лепту в развитие PiratBit!
    Комментировать посты могут только пользователи прошедшие не сложную регистрацию
    Показать сообщения:    

    Последний герой. Зрители против Звезд через торрент
    Скачать бесплатно Последний герой. Зрители против Звезд
    Последний герой. Зрители против Звезд скачать торрент
    Последний герой. Зрители против Звезд смотреть онлайн
    Cкачать фильм Последний герой. Зрители против Звезд бесплатно
    Последний герой. Зрители против Звезд скачать торрент в хорошем качестве
    Последний герой. Зрители против Звезд смотреть онлайн бесплатно в хорошем качестве


    Вы не можете начинать темы
    Вы не можете отвечать на сообщения
    Вы не можете редактировать свои сообщения
    Вы не можете удалять свои сообщения
    Вы не можете голосовать в опросах
    Вы не можете прикреплять файлы к сообщениям
    Вы можете скачивать файлы