Ссылка на приватное зеркало всего за 1$. Внимание количество ограничено!!!

iTunes

1+1

iTunes

мы

MV0

1

WEB-DLRip

Джокер

Пифагор

Ведьмак / The Witcher сериал

iTunes

ПШазам

iTunes

Оно 2

iTunes

30
pack

Вам бонус

ВАЖНО

!!Акция!!

Alien_RageХит недели

RePack

Resident Evil 21

ИГРА 18+

pack

RePack

jed

!!Акция!!

Alien_Rage

RePack

fifa19

RePack

Assassins Creed: Odyssey

RePack

NEED FOR SPEED™ PAYBACK

4 сезон

9 сезон

Бесстыжие 9 сезон

Все сериалы

все сериалы на PB.wtf

RePack

FAR CRY 5
  

Большие надежды / Сезон: 1 / Серии: 1-8 из 8 (Юлия Краснова) [2020, Мелодрама, HDTV 1080i] freegat.top

Большие надежды через торрент freegat.top

Раздают: 4 [ 1 MB/s ]
Размер: 22.11 GB | Добавлен: 4 д. назад | Торрент скачан:4 раза
Скачать  

12-02-2020 05:26 Большие надежды Скачать торрент  

Большие надежды
Год выпуска: 2020
Страна: Россия
Студия: Киностудия Маркес
Жанр: Мелодрама
Продолжительность: ~ 00:50:00 серия
Субтитры: отсутствуют

Режиссер: Юлия Краснова



В ролях: Татьяна Бабенкова, Анфиса Черных, Елена Яковлева, Евгений Антропов, Леонид Громов, Алексей Демидов, Василий Симонов, Ян Цапник, Кирилл Жандаров, Даниил Белых, Артём Осипов, Кирилл Сафонов, Олег Гаас, Евгений Сахаров

Описание: История любви и невосполнимых потерь на фоне жизни страны в последние тридцать лет. Юные Эра и Зина, окрыленные большими надеждами, наперекор советам родителей отправляются в город за своей мечтой. Они многое пройдут рука об руку, смогут по-настоящему подружиться, похоронят наивность и иллюзии, переживут взлеты и падения. И поймут, что главное в жизни – сохранить любовь, веру в людей и надежду на лучшее, несмотря ни на что.

Качество: HDTV 1080i
Формат: TS

Видео: MPEG-4 AVC, ~ 7100 Кбит/с, 1920x1080, 25 кадр/с
Аудио: Русский (MP2, 2 ch, 192 Кбит/с)
скриншот  скриншот  скриншот  скриншот  скриншот  
скриншот  

Общее
Идентификатор : 1 (0x1)
Полное имя : D:\Bolshie.nadezhdy.2019.HDTV.1080i\Bolshie.nadezhdy.01.2019.HDTV.1080i.ts
Формат : MPEG-TS
Размер файла : 2,77 Гбайт
Продолжительность : 51 м. 48 с.
Режим общего битрейта : Переменный
Общий поток : 7648 Кбит/сек

Видео
Идентификатор : 2911 (0xB5F)
Идентификатор меню : 1379 (0x563)
Формат : AVC
Формат/Информация : Advanced Video Codec
Профиль формата : High@L4
Параметр CABAC формата : Да
Параметр RefFrames формата : 4 кадра
Идентификатор кодека : 27
Продолжительность : 51 м. 47 с.
Битрейт : 7076 Кбит/сек
Ширина : 1920 пикселей
Высота : 1080 пикселей
Соотношение сторон : 16:9
Частота кадров : 25,000 кадров/сек
Цветовое пространство : YUV
Субдискретизация насыщенности : 4:2:0
Битовая глубина : 8 бит
Тип развёртки : MBAFF
Метод сохранения типа развёртки : Чередующиеся поля
Порядок развёртки : Верхнее поле первое
Бит/(Пиксели*Кадры) : 0.137
Размер потока : 2,56 Гбайт (93%)

Аудио
Идентификатор : 2912 (0xB60)
Идентификатор меню : 1379 (0x563)
Формат : MPEG Audio
Версия формата : Version 1
Профиль формата : Layer 2
Режим : Joint stereo
Расширение режима : Intensity Stereo + MS Stereo
Идентификатор кодека : 3
Продолжительность : 51 м. 48 с.
Вид битрейта : Постоянный
Битрейт : 192 Кбит/сек
Каналы : 2 канала
Частота : 48,0 КГц
Метод сжатия : С потерями
Задержка видео : -200 мс.
Размер потока : 71,1 Мбайт (3%)
Язык : Russian

Внимание! Раздача ведётся путём добавления новых серий; при каждом добавлении создаётся новый торрент. Чтобы начать докачку новой серии, пользователям необходимо сделать следующее:
(1) остановить скачивание,
(2) удалить старый торрент у себя из клиента (старые серии удалять не надо),
(3) скачать новый торрент и запустить его у себя в клиенте вместо старого, при этом указать клиенту путь в старую папку куда и должно происходить скачивание новых серий.

Ваш клиент при этом должен произвести хеширование (проверку) старой папки (если не производит сам - помогите ему сделать это), и будет докачивать только те серии которых у вас ещё нет. Старые серии при этом не удаляются, а продолжают раздаваться!

Eсли вы уже удалили старые серии, то предотвратить повторную закачку старых серий можно, отжав галочку в соответсвующих местах при запуске нового торрента. По возможности, желательно не удалять старые серии как можно дольше чтобы релизёр не столько продолжал раздавать старые серии, а смог сконцентрироваться на новых.
freegat.top



Скачать Большие надежды через торрент https://i111.fastpic.ru/big/2020/0210/8a/f664b8afc5b69a0398c11f935991ce8a.jpg Скачать фильм Большие надежды через торрент бесплантно в хорошем качестве Описание: История любви и невосполнимых потерь на фоне жизни страны в последние тридцать лет. Юные Эра и Зина, окрыленные большими ... 10 10 4
Торрент: Зарегистрирован [2020-02-13 20:51] · скачан: 4 раз
Статус: √ проверено
Размер: 22.11 GB
Как cкачать? Как скачать Большие надежды через торрент | qTorrent

% Раздел Тема Автор DL S | L
Наши сериалы [ 10.68 GB ] Большие надежды / Сезон: 1 / Серии: 1-8 из 8 [2020 Мело HDTVRip 720p] bober100 Скачать
5 | 1

28-11-2019 20:33  

Отключить всю рекламу на сайте


    Дорогой пользователь! Огромная просьба, поблагодарите релизера, оцените раздачу и оставьте свои комментарий, если Вы скачали Большие надежды через торрент бесплатно! Внесите свою лепту в развитие PiratBit!
    Комментировать посты могут только пользователи прошедшие не сложную регистрацию
    Показать сообщения:    

    Большие надежды через торрент
    Скачать бесплатно Большие надежды
    Большие надежды скачать торрент
    Большие надежды смотреть онлайн
    Cкачать фильм Большие надежды бесплатно
    Большие надежды скачать торрент в хорошем качестве
    Большие надежды смотреть онлайн бесплатно в хорошем качестве


    Вы не можете начинать темы
    Вы не можете отвечать на сообщения
    Вы не можете редактировать свои сообщения
    Вы не можете удалять свои сообщения
    Вы не можете голосовать в опросах
    Вы не можете прикреплять файлы к сообщениям
    Вы можете скачивать файлы