Ссылка на приватное зеркало всего за 1$. Внимание количество ограничено!!!

iTunes

1+1

iTunes

мы

MV0

1

WEB-DLRip

Джокер

Пифагор

Ведьмак / The Witcher сериал

iTunes

ПШазам

iTunes

Оно 2

iTunes

30
pack

Вам бонус

ВАЖНО

!!Акция!!

Alien_RageХит недели

RePack

Resident Evil 21

ИГРА 18+

pack

RePack

jed

!!Акция!!

Alien_Rage

RePack

fifa19

RePack

Assassins Creed: Odyssey

RePack

NEED FOR SPEED™ PAYBACK

4 сезон

9 сезон

Бесстыжие 9 сезон

Все сериалы

все сериалы на PB.wtf

RePack

FAR CRY 5
  

Расправь крылья / Donne moi des ailes (Николя Ванье) [2019, Приключения, семейный, BDRip 720p] DUB [iTunes] freegat.top

Расправь крылья через торрент freegat.top

Раздают: 10 [ 364 KB/s ]
Размер: 6.23 GB | Добавлен: 13 д. назад | Торрент скачан:86 раз
Скачать  

13-02-2020 17:05 Расправь крылья Скачать торрент  

Расправь крылья | Donne moi des ailes
Год выпуска: 2019
Страна: Франция, Норвегия
Студия: Canal+ [fr], Canopée Production, France 2 Cinéma
Жанр: Приключения, семейный
Продолжительность: 01:53:00
Перевод: Дублированный | iTunes
Субтитры: отсутствуют

Режиссер: Николя Ванье

rating

В ролях: Жан-Поль Рув, Мелани Дотей, Луис Васкес, Лилу Фогли, Фредерик Сорель, Грегори Баке, Доминик Пинон, Ариан Пири, Филипп Маньян, Седрик Месбурж

Описание: Подросток Тома навещает во время отдыха своего отца Кристиана, чудаковатого орнитолога. Но для юноши, увлеченного гаджетами и играми, разведение диких гусей во французской деревне и эксперименты отца наводят лишь тоску. Однако все меняется, когда Тома решает спасти исчезающий вид диких гусей и отправляется в воодушевляющее путешествие с «небесными ангелами», как их называет Кристиан.

Качество: BDRip 720p
Формат: MKV

Видео: MPEG-4 AVC, 1280x536, 5999 Kbit/s, 24 fps
Аудио #01: 48 kHz, AC3, 5.1, 384 Kbps | iTunes | RUS |
Аудио #02: 48 kHz, DTS, 5.1, 1510 Kbps | Оригинал | ENG |
скриншот  скриншот  скриншот  скриншот  скриншот  

General
Unique ID : 184277058490150062196682573053932278748 (0x8AA27872C08870071EAE3840763313DC)
Complete name : E:Video111Donne.Moi.des.Ailes.2019.BDRip.720p.seleZen.mkv
Format : Matroska
Format version : Version 4
File size : 6.23 GiB
Duration : 1 h 53 min
Overall bit rate : 7 891 kb/s
Movie name : Donne Moi des Ailes 2019 from селезень
Encoded date : UTC 2020-02-13 08:02:19
Writing application : mkvmerge v40.0.0 ('Old Town Road + Pony') 64-bit
Writing library : libebml v1.3.9 + libmatroska v1.5.2

Video
ID : 1
Format : AVC
Format/Info : Advanced Video Codec
Format profile : High@L4.1
Format settings : CABAC / 12 Ref Frames
Format settings, CABAC : Yes
Format settings, Reference : 12 frames
Codec ID : V_MPEG4/ISO/AVC
Duration : 1 h 53 min
Bit rate : 5 999 kb/s
Width : 1 280 pixels
Height : 536 pixels
Display aspect ratio : 2.40:1
Frame rate mode : Constant
Frame rate : 24.000 FPS
Color space : YUV
Chroma subsampling : 4:2:0
Bit depth : 8 bits
Scan type : Progressive
Bits/(Pixel*Frame) : 0.364
Stream size : 4.73 GiB (76%)
Title : BdC
Writing library : x264 core 157 r2969 d4099dd
Encoding settings : cabac=1 / ref=12 / deblock=1:-3:-3 / analyse=0x3:0x133 / me=umh / subme=10 / psy=1 / psy_rd=1.00:0.00 / mixed_ref=1 / me_range=32 / chroma_me=1 / trellis=2 / 8x8dct=1 / cqm=0 / deadzone=21,11 / fast_pskip=0 / chroma_qp_offset=-2 / threads=8 / lookahead_threads=1 / sliced_threads=0 / nr=0 / decimate=0 / interlaced=0 / bluray_compat=0 / constrained_intra=0 / bframes=8 / b_pyramid=2 / b_adapt=2 / b_bias=0 / direct=3 / weightb=1 / open_gop=0 / weightp=2 / keyint=240 / keyint_min=24 / scenecut=40 / intra_refresh=0 / rc_lookahead=60 / rc=2pass / mbtree=0 / bitrate=5999 / ratetol=1.0 / qcomp=0.60 / qpmin=0 / qpmax=69 / qpstep=4 / cplxblur=20.0 / qblur=0.5 / vbv_maxrate=62500 / vbv_bufsize=78125 / nal_hrd=none / filler=0 / ip_ratio=1.30 / pb_ratio=1.20 / aq=3:0.80
Language : French
Default : Yes
Forced : No
Color range : Limited
Color primaries : BT.709
Transfer characteristics : BT.709
Matrix coefficients : BT.709

Audio #1
ID : 2
Format : AC-3
Format/Info : Audio Coding 3
Commercial name : Dolby Digital
Codec ID : A_AC3
Duration : 1 h 53 min
Bit rate mode : Constant
Bit rate : 384 kb/s
Channel(s) : 6 channels
Channel layout : L R C LFE Ls Rs
Sampling rate : 48.0 kHz
Frame rate : 31.250 FPS (1536 SPF)
Compression mode : Lossy
Stream size : 310 MiB (5%)
Title : iTunes
Language : Russian
Service kind : Complete Main
Default : Yes
Forced : Yes

Audio #2
ID : 3
Format : DTS
Format/Info : Digital Theater Systems
Codec ID : A_DTS
Duration : 1 h 53 min
Bit rate mode : Constant
Bit rate : 1 509 kb/s
Channel(s) : 6 channels
Channel layout : C L R Ls Rs LFE
Sampling rate : 48.0 kHz
Frame rate : 93.750 FPS (512 SPF)
Bit depth : 24 bits
Compression mode : Lossy
Stream size : 1.19 GiB (19%)
Title : Original
Language : French
Default : No
Forced : No

Menu
00:00:00.000 : en:00:00:00.000
00:10:22.208 : en:00:10:22.208
00:18:40.792 : en:00:18:40.792
00:28:41.625 : en:00:28:41.625
00:36:47.542 : en:00:36:47.542
00:46:19.333 : en:00:46:19.333
00:51:30.125 : en:00:51:30.125
01:02:36.625 : en:01:02:36.625
01:11:18.333 : en:01:11:18.333
01:20:06.708 : en:01:20:06.708
01:29:25.750 : en:01:29:25.750
01:37:34.333 : en:01:37:34.333

freegat.top



Скачать Расправь крылья через торрент https://img16.lostpic.net/2020/02/13/e3bbcf23b12084e3aca913a2d9a5fa41.jpg Скачать фильм Расправь крылья через торрент бесплантно в хорошем качестве Описание: Подросток Тома навещает во время отдыха своего отца Кристиана, чудаковатого орнитолога. Но для юноши, увлеченного гаджетами и ... 10 10 4
Торрент: Зарегистрирован [2020-02-13 17:05] · скачан: 86 раз
Статус: √ проверено
Размер: 6.23 GB
Как cкачать? Как скачать Расправь крылья через торрент | qTorrent

% Раздел Тема Автор DL S | L
Фильмы (Blu-ray, BD-Remux, HDDVD) [ 32.76 GB ] Расправь крылья / Donne moi des ailes [2019 BD Remux 1080p] bober100 Скачать
1 | 0
Фильмы [HD 720p, 1080p] (Хороший звук DUB, MVO) [ 11.19 GB ] Расправь крылья / Donne moi des ailes [2019 BDRip 1080p] bober100 Скачать
22 | 1
Фильмы 2019-2020 [DVDrip, WEB-DLRip, HDrip] (DUB, MVO) [ 1.46 GB ] Расправь крылья / Donne moi des ailes [2019 BDRip] bober100 Скачать
29 | 0

28-11-2019 20:33  

Отключить всю рекламу на сайте

    Дорогой пользователь! Огромная просьба, поблагодарите релизера, оцените раздачу и оставьте свои комментарий, если Вы скачали Расправь крылья через торрент бесплатно! Внесите свою лепту в развитие PiratBit!
    Комментировать посты могут только пользователи прошедшие не сложную регистрацию
    Показать сообщения:    

    Расправь крылья через торрент
    Скачать бесплатно Расправь крылья
    Расправь крылья скачать торрент
    Расправь крылья смотреть онлайн
    Cкачать фильм Расправь крылья бесплатно
    Расправь крылья скачать торрент в хорошем качестве
    Расправь крылья смотреть онлайн бесплатно в хорошем качестве


    Вы не можете начинать темы
    Вы не можете отвечать на сообщения
    Вы не можете редактировать свои сообщения
    Вы не можете удалять свои сообщения
    Вы не можете голосовать в опросах
    Вы не можете прикреплять файлы к сообщениям
    Вы можете скачивать файлы