Ссылка на приватное зеркало всего за 1$. Внимание количество ограничено!!!

iTunes

1+1

iTunes

мы

MV0

1

WEB-DLRip

Джокер

Пифагор

Ведьмак / The Witcher сериал

iTunes

ПШазам

iTunes

Оно 2

iTunes

30
pack

Вам бонус

ВАЖНО

!!Акция!!

Alien_RageХит недели

RePack

Resident Evil 21

ИГРА 18+

pack

RePack

jed

!!Акция!!

Alien_Rage

RePack

fifa19

RePack

Assassins Creed: Odyssey

RePack

NEED FOR SPEED™ PAYBACK

4 сезон

9 сезон

Бесстыжие 9 сезон

Все сериалы

все сериалы на PB.wtf

RePack

FAR CRY 5
  

Джуманджи: Новый уровень / Jumanji: The Next Level (Джейк Кэздан) [2019, фэнтези, боевик, комедия, приключения, WEB-DL 1080p] DUB [Онлайн-кинотеатр] freegat.top

Джуманджи: Новый уровень через торрент freegat.top

Раздают: 84 [ 20 MB/s ] Качают: 21 [ 2 MB/s ]
Размер: 5.23 GB | Добавлен: 17 ч. назад | Торрент скачан:162 раза
Скачать  

13-02-2020 18:41 Джуманджи: Новый уровень Скачать торрент  

Джуманджи: Новый уровень | Jumanji: The Next Level
Год выпуска: 2019
Страна: США
Жанр: фэнтези, боевик, комедия, приключения
Продолжительность: 02:03:05
Перевод: Дублированный | Онлайн-кинотеатр
Субтитры: отсутствуют

Режиссер: Джейк Кэздан

rating

В ролях: Карен Гиллан, Дуэйн Джонсон, Дэнни ДеВито, Мэдисон Айсмен, Джек Блэк, Аквафина, Эшли Скотт, Кевин Харт, Ник Джонас, Риз Дэрби

Описание: Чтобы спасти одного из приятелей, остальным приходится вернуться в игру. К их удивлению, правила Джуманджи изменились, и все идет наперекосяк. Чтобы выжить друзьям предстоит отправиться в путешествие по самым неизведанным и таинственным уголкам игры - от засушливой пустыни до заснеженных гор.

Качество: WEB-DL 1080p
Формат: MKV

Видео: MPEG-4 AVC, 5509 Кбит/с, 1920x1080
Аудио: Русский (AC3, 2 ch, 192 Кбит/с)
Аудио: английский (AC3, 6 ch, 384 Кбит/с)
скриншот  скриншот  скриншот  скриншот  

General
Unique ID : 212590795361027557723391381371189841142 (0x9FEF7F74528E2120A0145FE39605CCF6)
Complete name : E:\Вид\Jumanji.The.Next.Level.2019.1080p.WEB-DL.DD5.1.x264.mkv
Format : Matroska
Format version : Version 4
File size : 5.23 GiB
Duration : 2 h 3 min
Overall bit rate : 6 088 kb/s
Encoded date : UTC 2020-02-26 16:12:54
Writing application : mkvmerge v18.0.0 ('Apricity') 64-bit
Writing library : libebml v1.3.5 + libmatroska v1.4.8

Video
ID : 1
Format : AVC
Format/Info : Advanced Video Codec
Format profile : High@L4
Format settings : CABAC / 2 Ref Frames
Format settings, CABAC : Yes
Format settings, Reference : 2 frames
Codec ID : V_MPEG4/ISO/AVC
Duration : 2 h 3 min
Bit rate : 5 509 kb/s
Width : 1 920 pixels
Height : 1 080 pixels
Display aspect ratio : 16:9
Frame rate mode : Constant
Frame rate : 23.976 (24000/1001) FPS
Color space : YUV
Chroma subsampling : 4:2:0
Bit depth : 8 bits
Scan type : Progressive
Bits/(Pixel*Frame) : 0.111
Stream size : 4.74 GiB (91%)
Writing library : x264 core 155 r2901 7d0ff22
Default : Yes
Forced : No
Color range : Limited
Color primaries : BT.709
Transfer characteristics : BT.709
Matrix coefficients : BT.709

Audio #1
ID : 2
Format : AC-3
Format/Info : Audio Coding 3
Commercial name : Dolby Digital
Codec ID : A_AC3
Duration : 2 h 3 min
Bit rate mode : Constant
Bit rate : 192 kb/s
Channel(s) : 2 channels
Channel layout : L R
Sampling rate : 48.0 kHz
Frame rate : 31.250 FPS (1536 SPF)
Compression mode : Lossy
Stream size : 169 MiB (3%)
Language : Russian
Service kind : Complete Main
Default : Yes
Forced : No

Audio #2
ID : 3
Format : AC-3
Format/Info : Audio Coding 3
Commercial name : Dolby Digital
Codec ID : A_AC3
Duration : 2 h 3 min
Bit rate mode : Constant
Bit rate : 384 kb/s
Channel(s) : 6 channels
Channel layout : L R C LFE Ls Rs
Sampling rate : 48.0 kHz
Frame rate : 31.250 FPS (1536 SPF)
Compression mode : Lossy
Delay relative to video : 6 ms
Stream size : 338 MiB (6%)
Title : English
Language : English
Service kind : Complete Main
Default : No
Forced : No

freegat.top



Скачать Джуманджи: Новый уровень через торрент https://i4.imageban.ru/out/2020/02/14/aefb3b1d953cf90e016541bcb0175d76.png Скачать фильм Джуманджи: Новый уровень через торрент бесплантно в хорошем качестве Описание: Чтобы спасти одного из приятелей, остальным приходится вернуться в игру. К их удивлению, правила Джуманджи изменились, и все идет ... 9.8 10 55
Торрент: Зарегистрирован [2020-02-26 18:36] · скачан: 162 раз
Статус: T временная
Размер: 5.23 GB
Как cкачать? Как скачать Джуманджи: Новый уровень через торрент | qTorrent

% Раздел Тема Автор DL S | L
T Фильмы (мультфильмы) cо спонсором показа (Новинки AVI/MKV) [ 5.15 GB ] Джуманджи: Новый уровень / Jumanji: The Next Level [2019 WEBRip 720p] DUB [Line] bober100 Скачать
36 | 0
T Фильмы (мультфильмы) cо спонсором показа (Новинки AVI/MKV) [ 2.05 GB ] Джуманджи: Новый уровень / Jumanji: The Next Level [2019 WEBRip] DUB [Line] bober100 Скачать
81 | 1
T Фильмы 2019-2020 [DVDrip, WEB-DLRip, HDrip] (DUB, MVO) [ 1.46 GB ] Джуманджи: Новый уровень / Jumanji: The Next Level [2019 WEBRip] DUB [Онлайн-кинотеатра] bober100 Скачать
94 | 0
x Фильмы (мультфильмы) cо спонсором показа (Новинки AVI/MKV) [ 3.24 GB ] Джуманджи: Новый уровень / Jumanji: The Next Level [2019 г TS 720p] killermax2013 Скачать
10 | 0
x Фильмы (мультфильмы) cо спонсором показа (Новинки AVI/MKV) [ 1.37 GB ] Джуманджи: Новый уровень / Jumanji: The Next Level [2019 г TS] killermax2013 Скачать
7 | 0


Последний раз редактировалось: bober100 (2020-02-26 18:42), всего редактировалось 2 раз(а)

28-11-2019 20:33  

Отключить всю рекламу на сайте

    Дорогой пользователь! Огромная просьба, поблагодарите релизера, оцените раздачу и оставьте свои комментарий, если Вы скачали Джуманджи: Новый уровень через торрент бесплатно! Внесите свою лепту в развитие PiratBit!
    Комментировать посты могут только пользователи прошедшие не сложную регистрацию
    Показать сообщения:    

    Джуманджи: Новый уровень через торрент
    Скачать бесплатно Джуманджи: Новый уровень
    Джуманджи: Новый уровень скачать торрент
    Джуманджи: Новый уровень смотреть онлайн
    Cкачать фильм Джуманджи: Новый уровень бесплатно
    Джуманджи: Новый уровень скачать торрент в хорошем качестве
    Джуманджи: Новый уровень смотреть онлайн бесплатно в хорошем качестве


    Вы не можете начинать темы
    Вы не можете отвечать на сообщения
    Вы не можете редактировать свои сообщения
    Вы не можете удалять свои сообщения
    Вы не можете голосовать в опросах
    Вы не можете прикреплять файлы к сообщениям
    Вы можете скачивать файлы