Ссылка на приватное зеркало всего за 1$. Внимание количество ограничено!!!

iTunes

1+1

iTunes

мы

MV0

1

WEB-DLRip

Джокер

Пифагор

Ведьмак / The Witcher сериал

iTunes

ПШазам

iTunes

Оно 2

iTunes

30
pack

Вам бонус

ВАЖНО

!!Акция!!

Alien_RageХит недели

RePack

Resident Evil 21

ИГРА 18+

pack

RePack

jed

!!Акция!!

Alien_Rage

RePack

fifa19

RePack

Assassins Creed: Odyssey

RePack

NEED FOR SPEED™ PAYBACK

4 сезон

9 сезон

Бесстыжие 9 сезон

Все сериалы

все сериалы на PB.wtf

RePack

FAR CRY 5
  

Говорящая с призраками / Ghost Whisperer / Сезон: 1 / Серии: 1-22 из 22 (Йен Сэндер, Эрик Ланевилль, Джон Грэй) [2002, Фэнтези, драма, мистика, ужасы, WEB-DL 1080p] MVO [OРТ] freegat.top

Говорящая с призраками через торрент freegat.top

Раздают: 1 [ 5 MB/s ]
Размер: 96.91 GB | Добавлен: 13 д. назад | Торрент скачан:2 раза
Скачать  

14-02-2020 05:05 Говорящая с призраками Скачать торрент  

Говорящая с призраками | Ghost Whisperer
Год выпуска: 2002
Страна: США
Жанр: Фэнтези, драма, мистика, ужасы
Продолжительность: ~ 00:43:00 серия
Перевод: Профессиональный (многоголосый) | OРТ
Субтитры: Английские

Режиссер: Йен Сэндер, Эрик Ланевилль, Джон Грэй

rating

В ролях: Дженнифер Лав Хьюитт, Дэвид Конрад, Аиша Тайлер, Дариуш Кашани, Дуглас Биерман, Джун Скуиб, Грэйс Фултон, Энн Арчер, Скотт Ринкер, Дэвид Рэмси, Тим Гини, Дондре Уитфилд, Джордан Данг, Рэйчел Кэннон, Карен Маруяма, Уэйн Пер, Грег Сайпс, Маркус Эшли, Джон Седа, Джон Полито

Описание: Мелинда Гордон (Дженифер Лав Хьюит) обладает уникальным даром. Она может видеть и слышать мертвых. Этот дар переходит из поколения в поколение. Обычно призраки просят о всяких мелочах: сказать родным, что они их любят, сообщить, где лежит ключ от депозита в банке и все такое прочее. Но в один прекрасный момент призраки начинают навещать Мелинду в её новом доме, куда она только что переехала со своим мужем Джимом (Дэвид Конрад), чертить на зеркале символы и пугать в темных коридорах и ванной. История эта основана на рассказах реальных медиумов Джеймса Ван Праха (James Van Praagh) и Мэри Энн Винковски (Mary Ann Winkowski). По крайней мере, такими сообщениями привлекалась публика к экрану. О творчестве Ван Праха можно даже почитать на официальном сайте сериала. Там что-то вроде его дневника о съемках сериала. Один взгляд на этого типа и любой ребенок скажет вам, какой он «медиум». Не знаю, сколько платят этим «медиумам» и какая у них зарплата, но Мелинда – девушка честная и за свою работу денег не берет. Для неё важна эмоциональная отдача. Она помогает ближнему своему!

Качество: WEB-DL 1080p
Формат: MKV

Видео: MPEG-4 AVC, ~ 14,5 Мбит/с, 1920x1080
Аудио#1: Русский (AC3, 2 ch, 192 Кбит/с)
Аудио#2: английский (AC3, 6 ch, 640 Кбит/с)
скриншот   скриншот   скриншот  

Общее
Уникальный идентификатор : 192419699977750291004314566775042423261 (0x90C2AFAB4F114A97812BA82537FB39DD)
Полное имя : D:\Говорящая с призраками. 1 сезон. 2005-2006. ОРТ (WEB-DL 1080p)\s01e01. Пилот.mkv
Формат : Matroska
Версия формата : Version 2
Размер файла : 4,77 Гбайт
Продолжительность : 44 м. 25 с.
Режим общего битрейта : Переменный
Общий поток : 15,4 Мбит/сек
Название фильма : Pilot
Дата кодирования : UTC 2018-07-26 21:15:27
Программа кодирования : mkvmerge v7.8.0 ('River Man') 32bit built on Apr 3 2015 12:11:22
Библиотека кодирования : libebml v1.3.1 + libmatroska v1.4.2
Обложка : Yes
Attachments : Cover_Ghost_Whisperer.jpg

Видео
Идентификатор : 1
Формат : AVC
Формат/Информация : Advanced Video Codec
Профиль формата : High@L4
Параметр CABAC формата : Да
Параметр RefFrames формата : 4 кадра
Идентификатор кодека : V_MPEG4/ISO/AVC
Продолжительность : 44 м. 25 с.
Вид битрейта : Переменный
Битрейт : 14,4 Мбит/сек
Максимальный битрейт : 15,0 Мбит/сек
Ширина : 1920 пикселей
Высота : 1080 пикселей
Соотношение сторон : 16:9
Режим частоты кадров : Постоянный
Частота кадров : 23,976 (24000/1001) кадра/сек
Цветовое пространство : YUV
Субдискретизация насыщенности : 4:2:0
Битовая глубина : 8 бит
Тип развёртки : Прогрессивная
Бит/(Пиксели*Кадры) : 0.286
Размер потока : 4,42 Гбайт (93%)
Библиотека кодирования : x264 core 148 r2623 d5b2374
Настройки программы : cabac=1 / ref=4 / deblock=1:-1:-1 / analyse=0x3:0x133 / me=umh / subme=9 / psy=1 / psy_rd=1.00:0.15 / mixed_ref=1 / me_range=24 / chroma_me=1 / trellis=2 / 8x8dct=1 / cqm=0 / deadzone=21,11 / fast_pskip=1 / chroma_qp_offset=-3 / threads=34 / lookahead_threads=5 / sliced_threads=0 / nr=150 / decimate=1 / interlaced=0 / bluray_compat=0 / constrained_intra=0 / bframes=8 / b_pyramid=2 / b_adapt=2 / b_bias=0 / direct=3 / weightb=1 / open_gop=0 / weightp=2 / keyint=120 / keyint_min=61 / scenecut=0 / intra_refresh=0 / rc_lookahead=120 / rc=crf / mbtree=1 / crf=18.0 / qcomp=0.60 / qpmin=0 / qpmax=69 / qpstep=4 / vbv_maxrate=15000 / vbv_bufsize=31250 / crf_max=0.0 / nal_hrd=vbr / filler=0 / ip_ratio=1.40 / aq=3:1.00
Язык : English
Default : Да
Forced : Нет
Цветовой диапазон : Limited
Основные цвета : BT.709
Характеристики трансфера : BT.709
Коэффициенты матрицы : BT.709

Аудио #1
Идентификатор : 2
Формат : AC-3
Формат/Информация : Audio Coding 3
Расширение режима : CM (complete main)
Параметр Endianness формата : Big
Идентификатор кодека : A_AC3
Продолжительность : 44 м. 25 с.
Вид битрейта : Постоянный
Битрейт : 192 Кбит/сек
Каналы : 2 канала
Расположение каналов : Front: L R
Частота : 48,0 КГц
Частота кадров : 31,250 кадров/сек (1536 spf)
Метод сжатия : С потерями
Размер потока : 61,0 Мбайт (1%)
Язык : Russian
Default : Да
Forced : Нет

Аудио #2
Идентификатор : 3
Формат : AC-3
Формат/Информация : Audio Coding 3
Расширение режима : CM (complete main)
Параметр Endianness формата : Big
Идентификатор кодека : A_AC3
Продолжительность : 44 м. 25 с.
Вид битрейта : Постоянный
Битрейт : 640 Кбит/сек
Каналы : 6 каналов
Расположение каналов : Front: L C R, Side: L R, LFE
Частота : 48,0 КГц
Частота кадров : 31,250 кадров/сек (1536 spf)
Метод сжатия : С потерями
Размер потока : 203 Мбайт (4%)
Язык : English
Default : Нет
Forced : Нет

Текст
Идентификатор : 4
Формат : UTF-8
Идентификатор кодека : S_TEXT/UTF8
Идентификатор кодека/Информация : UTF-8 Plain Text
Язык : English
Default : Нет
Forced : Нет

freegat.top



Скачать Говорящая с призраками через торрент https://img15.lostpic.net/2020/02/14/10c0331574cdadd3488bee0256e76ae8.jpg Скачать фильм Говорящая с призраками через торрент бесплантно в хорошем качестве Описание: Мелинда Гордон (Дженифер Лав Хьюит) обладает уникальным даром. Она может видеть и слышать мертвых. Этот дар переходит из ... 10 10 2
Info! Золотая раздача, скачанное не засчитывается.
Торрент: Зарегистрирован [2020-02-14 05:05] · скачан: 2 раз
Статус: √ проверено
Размер: 96.91 GB
Как cкачать? Как скачать Говорящая с призраками через торрент | qTorrent

% Раздел Тема Автор DL S | L
Зарубежные сериалы [ 8.41 GB ] Говорящая с призраками / Ghost Whisperer [2005 DVDRip MVO] sergey82 Скачать
1 | 0

28-11-2019 20:33  

Отключить всю рекламу на сайте

    Дорогой пользователь! Огромная просьба, поблагодарите релизера, оцените раздачу и оставьте свои комментарий, если Вы скачали Говорящая с призраками через торрент бесплатно! Внесите свою лепту в развитие PiratBit!
    Комментировать посты могут только пользователи прошедшие не сложную регистрацию
    Показать сообщения:    

    Говорящая с призраками через торрент
    Скачать бесплатно Говорящая с призраками
    Говорящая с призраками скачать торрент
    Говорящая с призраками смотреть онлайн
    Cкачать фильм Говорящая с призраками бесплатно
    Говорящая с призраками скачать торрент в хорошем качестве
    Говорящая с призраками смотреть онлайн бесплатно в хорошем качестве


    Вы не можете начинать темы
    Вы не можете отвечать на сообщения
    Вы не можете редактировать свои сообщения
    Вы не можете удалять свои сообщения
    Вы не можете голосовать в опросах
    Вы не можете прикреплять файлы к сообщениям
    Вы можете скачивать файлы