Ссылка на приватное зеркало всего за 1$. Внимание количество ограничено!!!

iTunes

1+1

iTunes

мы

MV0

1

WEB-DLRip

Джокер

Пифагор

Ведьмак / The Witcher сериал

iTunes

ПШазам

iTunes

Оно 2

iTunes

30
pack

Вам бонус

ВАЖНО

!!Акция!!

Alien_RageХит недели

RePack

Resident Evil 21

ИГРА 18+

pack

RePack

jed

!!Акция!!

Alien_Rage

RePack

fifa19

RePack

Assassins Creed: Odyssey

RePack

NEED FOR SPEED™ PAYBACK

4 сезон

9 сезон

Бесстыжие 9 сезон

Все сериалы

все сериалы на PB.wtf

RePack

FAR CRY 5
  

Нарко: Мексика / Narcos: Mexico / Сезон: 2 / Серии: 1-10 из 10 (Андрес Байс, Амат Эскаланте, Алонсо Руис Палашиос) [2020, Драма, криминал, WEBRip 1080p] MVO [HDRezka Studio] freegat.top

Нарко: Мексика через торрент freegat.top

Раздают: 4 [ 3 MB/s ] Качают: 2 [ 0 KB/s ]
Размер: 26.8 GB | Добавлен: 9 д. назад | Торрент скачан:21 раз
Скачать  

14-02-2020 07:04 Нарко: Мексика Скачать торрент  

Нарко: Мексика | Narcos: Mexico
Год выпуска: 2020
Страна: Мексика, США
Жанр: Драма, криминал
Продолжительность: ~ 00:58:00 серия
Перевод: Профессиональный (многоголосый) | HDRezka Studio
Субтитры: Русские, английские, испанские, французские, немецкие, португальские

Режиссер: Андрес Байс, Амат Эскаланте, Алонсо Руис Палашиос

rating


В ролях: Диего Луна, Скут МакНэри, Тереса Руис, Майкл Пенья, Алисса Диас, Хоакин Косио, Мэтт Летчер, Аарон Стэтон, Теноч Уэрта, Алехандро Эдда и другие.

Описание: В 1980-х годах Феликс Гальярдо решил объединить разрозненных и независимых производителей и дилеров наркотиков Мексики и построить собственную криминальную империю. В это же время агент Управления по борьбе с наркотиками Кики Камарена, получив повышение, переезжает с женой и маленьким сыном из Калифорнии в Гвадалахару. На новом месте он сталкивается с сильнейшим противником, и их противостояние затягивается на долгие годы.

Качество: WEBRip 1080p
Формат: MKV

Видео: MPEG-4 AVC, ~ 5110 Кбит/с, 1920x1080, 23.976 Кадр/с
Аудио#1: Русский (AC3, 2 ch, 192 Кбит/с)
Аудио#2: английский (Е-AC3, 6 ch, 768 Кбит/с)
скриншот  скриншот  скриншот  скриншот  скриншот  

Полное имя : Narcos.Mexico.S02.E01.1080p.NF.WEBRip.HDREZKA.STUDIO.mkv
Формат : Matroska
Версия формата : Version 4
Размер файла : 2,77 Гбайт
Продолжительность : 1 ч. 5 м.
Режим общего битрейта : Переменный
Общий поток : 6041 Кбит/сек
Дата кодирования : UTC 2020-02-14 06:29:51
Программа кодирования : mkvmerge v43.0.0 ('The Quartermaster') 64-bit
Библиотека кодирования : libebml v1.3.10 + libmatroska v1.5.2

Видео
Идентификатор : 1
Формат : AVC
Формат/Информация : Advanced Video Codec
Профиль формата : Main@L4
Настройки формата : CABAC / 3 Ref Frames
Параметр CABAC формата : Да
Параметр RefFrames формата : 3 кадра
Идентификатор кодека : V_MPEG4/ISO/AVC
Продолжительность : 1 ч. 5 м.
Вид битрейта : Переменный
Битрейт : 5110 Кбит/сек
Максимальный битрейт : 7665 Кбит/сек
Ширина : 1920 пикселей
Высота : 1080 пикселей
Соотношение сторон : 16:9
Режим частоты кадров : Постоянный
Частота кадров : 23,976 (24000/1001) кадра/сек
Цветовое пространство : YUV
Субдискретизация насыщенности : 4:2:0
Битовая глубина : 8 бит
Тип развёртки : Прогрессивная
Бит/(Пиксели*Кадры) : 0.103
Размер потока : 2,33 Гбайт (84%)
Библиотека кодирования : x264 core 148 r2717 0d2410d
Настройки программы : cabac=1 / ref=3 / deblock=1:0:0 / analyse=0x1:0x111 / me=umh / subme=10 / psy=1 / psy_rd=1.00:0.00 / mixed_ref=1 / me_range=24 / chroma_me=1 / trellis=2 / 8x8dct=0 / cqm=0 / deadzone=21,11 / fast_pskip=1 / chroma_qp_offset=-2 / threads=8 / lookahead_threads=1 / sliced_threads=0 / nr=0 / decimate=1 / interlaced=0 / bluray_compat=0 / stitchable=1 / constrained_intra=0 / bframes=2 / b_pyramid=0 / b_adapt=2 / b_bias=0 / direct=3 / weightb=1 / open_gop=0 / weightp=2 / keyint=250 / keyint_min=23 / scenecut=0 / intra_refresh=0 / rc_lookahead=48 / rc=2pass / mbtree=1 / bitrate=5110 / ratetol=1.0 / qcomp=0.50 / qpmin=6 / qpmax=51 / qpstep=4 / cplxblur=20.0 / qblur=0.5 / vbv_maxrate=7665 / vbv_bufsize=10220 / nal_hrd=vbr / filler=0 / ip_ratio=1.40 / aq=1:1.00
Default : Да
Forced : Нет

Аудио #1
Идентификатор : 2
Формат : AC-3
Формат/Информация : Audio Coding 3
Коммерческое название : Dolby Digital
Идентификатор кодека : A_AC3
Продолжительность : 1 ч. 5 м.
Вид битрейта : Постоянный
Битрейт : 192 Кбит/сек
Каналы : 2 канала
ChannelLayout : L R
Частота : 48,0 КГц
Частота кадров : 31,250 кадров/сек (1536 SPF)
Метод сжатия : С потерями
Размер потока : 90,3 Мбайт (3%)
Язык : Russian
Default : Да
Forced : Нет

Аудио #2
Идентификатор : 3
Формат : E-AC-3 JOC
Формат/Информация : Enhanced AC-3 with Joint Object Coding
Коммерческое название : Dolby Digital Plus with Dolby Atmos
Идентификатор кодека : A_EAC3
Продолжительность : 1 ч. 5 м.
Вид битрейта : Постоянный
Битрейт : 768 Кбит/сек
Каналы : 6 каналов
ChannelLayout : L R C LFE Ls Rs
Частота : 48,0 КГц
Частота кадров : 31,250 кадров/сек (1536 SPF)
Метод сжатия : С потерями
Размер потока : 361 Мбайт (13%)
Заголовок : English
Язык : English
Default : Нет
Forced : Нет
ComplexityIndex : 16
NumberOfDynamicObjects : 15
BedChannelCount/String : 1 канал
BedChannelConfiguration : LFE

Текст #1
Идентификатор : 4
Формат : UTF-8
Идентификатор кодека : S_TEXT/UTF8
Идентификатор кодека/Информация : UTF-8 Plain Text
Продолжительность : 1 ч. 5 м.
Битрейт : 70 бит/сек
ElementCount : 764
Размер потока : 33,8 Кбайт (0%)
Язык : Russian
Default : Да
Forced : Нет

Текст #2
Идентификатор : 5
Формат : UTF-8
Идентификатор кодека : S_TEXT/UTF8
Идентификатор кодека/Информация : UTF-8 Plain Text
Продолжительность : 1 ч. 2 м.
Битрейт : 32 бит/сек
ElementCount : 569
Размер потока : 14,8 Кбайт (0%)
Заголовок : Forced
Язык : English
Default : Нет
Forced : Да

Текст #3
Идентификатор : 6
Формат : UTF-8
Идентификатор кодека : S_TEXT/UTF8
Идентификатор кодека/Информация : UTF-8 Plain Text
Продолжительность : 1 ч. 2 м.
Битрейт : 48 бит/сек
ElementCount : 783
Размер потока : 22,3 Кбайт (0%)
Язык : English
Default : Нет
Forced : Нет

Текст #4
Идентификатор : 7
Формат : UTF-8
Идентификатор кодека : S_TEXT/UTF8
Идентификатор кодека/Информация : UTF-8 Plain Text
Продолжительность : 1 ч. 4 м.
Битрейт : 54 бит/сек
ElementCount : 887
Размер потока : 25,9 Кбайт (0%)
Заголовок : SDH
Язык : English
Default : Нет
Forced : Нет

Текст #5
Идентификатор : 8
Формат : UTF-8
Идентификатор кодека : S_TEXT/UTF8
Идентификатор кодека/Информация : UTF-8 Plain Text
Продолжительность : 1 ч. 5 м.
Битрейт : 76 бит/сек
ElementCount : 790
Размер потока : 36,7 Кбайт (0%)
Язык : Arabic
Default : Нет
Forced : Нет

Текст #6
Идентификатор : 9
Формат : UTF-8
Идентификатор кодека : S_TEXT/UTF8
Идентификатор кодека/Информация : UTF-8 Plain Text
Продолжительность : 1 ч. 5 м.
Битрейт : 42 бит/сек
ElementCount : 782
Размер потока : 20,3 Кбайт (0%)
Язык : Czech
Default : Нет
Forced : Нет

Текст #7
Идентификатор : 10
Формат : UTF-8
Идентификатор кодека : S_TEXT/UTF8
Идентификатор кодека/Информация : UTF-8 Plain Text
Продолжительность : 1 ч. 5 м.
Битрейт : 42 бит/сек
ElementCount : 691
Размер потока : 20,5 Кбайт (0%)
Язык : Danish
Default : Нет
Forced : Нет

Текст #8
Идентификатор : 11
Формат : UTF-8
Идентификатор кодека : S_TEXT/UTF8
Идентификатор кодека/Информация : UTF-8 Plain Text
Продолжительность : 1 ч. 3 м.
Битрейт : 50 бит/сек
ElementCount : 764
Размер потока : 23,2 Кбайт (0%)
Язык : German
Default : Нет
Forced : Нет

Текст #9
Идентификатор : 12
Формат : UTF-8
Идентификатор кодека : S_TEXT/UTF8
Идентификатор кодека/Информация : UTF-8 Plain Text
Продолжительность : 1 ч. 5 м.
Битрейт : 75 бит/сек
ElementCount : 786
Размер потока : 36,0 Кбайт (0%)
Язык : Greek
Default : Нет
Forced : Нет

Текст #10
Идентификатор : 13
Формат : UTF-8
Идентификатор кодека : S_TEXT/UTF8
Идентификатор кодека/Информация : UTF-8 Plain Text
Продолжительность : 1 ч. 5 м.
Битрейт : 58 бит/сек
ElementCount : 888
Размер потока : 28,0 Кбайт (0%)
Заголовок : SDH
Язык : Spanish
Default : Нет
Forced : Нет

Текст #11
Идентификатор : 14
Формат : UTF-8
Идентификатор кодека : S_TEXT/UTF8
Идентификатор кодека/Информация : UTF-8 Plain Text
Продолжительность : 1 ч. 5 м.
Битрейт : 52 бит/сек
ElementCount : 795
Размер потока : 25,0 Кбайт (0%)
Язык : Spanish
Default : Нет
Forced : Нет

Текст #12
Идентификатор : 15
Формат : UTF-8
Идентификатор кодека : S_TEXT/UTF8
Идентификатор кодека/Информация : UTF-8 Plain Text
Продолжительность : 1 ч. 3 м.
Битрейт : 15 бит/сек
ElementCount : 197
Размер потока : 7,16 Кбайт (0%)
Заголовок : European
Язык : Spanish
Default : Нет
Forced : Нет

Текст #13
Идентификатор : 16
Формат : UTF-8
Идентификатор кодека : S_TEXT/UTF8
Идентификатор кодека/Информация : UTF-8 Plain Text
Продолжительность : 1 ч. 4 м.
Битрейт : 62 бит/сек
ElementCount : 910
Размер потока : 29,4 Кбайт (0%)
Заголовок : European SDH
Язык : Spanish
Default : Нет
Forced : Нет

Текст #14
Идентификатор : 17
Формат : UTF-8
Идентификатор кодека : S_TEXT/UTF8
Идентификатор кодека/Информация : UTF-8 Plain Text
Продолжительность : 1 ч. 5 м.
Битрейт : 43 бит/сек
ElementCount : 734
Размер потока : 20,9 Кбайт (0%)
Язык : Finnish
Default : Нет
Forced : Нет

Текст #15
Идентификатор : 18
Формат : UTF-8
Идентификатор кодека : S_TEXT/UTF8
Идентификатор кодека/Информация : UTF-8 Plain Text
Продолжительность : 1 ч. 5 м.
Битрейт : 47 бит/сек
ElementCount : 763
Размер потока : 22,4 Кбайт (0%)
Язык : French
Default : Нет
Forced : Нет

Текст #16
Идентификатор : 19
Формат : UTF-8
Идентификатор кодека : S_TEXT/UTF8
Идентификатор кодека/Информация : UTF-8 Plain Text
Продолжительность : 1 ч. 4 м.
Битрейт : 70 бит/сек
ElementCount : 801
Размер потока : 33,2 Кбайт (0%)
Язык : Hebrew
Default : Нет
Forced : Нет

Текст #17
Идентификатор : 20
Формат : UTF-8
Идентификатор кодека : S_TEXT/UTF8
Идентификатор кодека/Информация : UTF-8 Plain Text
Продолжительность : 1 ч. 5 м.
Битрейт : 45 бит/сек
ElementCount : 773
Размер потока : 21,9 Кбайт (0%)
Язык : Hungarian
Default : Нет
Forced : Нет

Текст #18
Идентификатор : 21
Формат : UTF-8
Идентификатор кодека : S_TEXT/UTF8
Идентификатор кодека/Информация : UTF-8 Plain Text
Продолжительность : 1 ч. 5 м.
Битрейт : 43 бит/сек
ElementCount : 780
Размер потока : 20,8 Кбайт (0%)
Язык : Indonesian
Default : Нет
Forced : Нет

Текст #19
Идентификатор : 22
Формат : UTF-8
Идентификатор кодека : S_TEXT/UTF8
Идентификатор кодека/Информация : UTF-8 Plain Text
Продолжительность : 1 ч. 5 м.
Битрейт : 44 бит/сек
ElementCount : 763
Размер потока : 21,0 Кбайт (0%)
Язык : Italian
Default : Нет
Forced : Нет

Текст #20
Идентификатор : 23
Формат : UTF-8
Идентификатор кодека : S_TEXT/UTF8
Идентификатор кодека/Информация : UTF-8 Plain Text
Продолжительность : 1 ч. 5 м.
Битрейт : 54 бит/сек
ElementCount : 773
Размер потока : 26,2 Кбайт (0%)
Язык : Japanese
Default : Нет
Forced : Нет

Текст #21
Идентификатор : 24
Формат : UTF-8
Идентификатор кодека : S_TEXT/UTF8
Идентификатор кодека/Информация : UTF-8 Plain Text
Продолжительность : 1 ч. 5 м.
Битрейт : 54 бит/сек
ElementCount : 793
Размер потока : 26,1 Кбайт (0%)
Язык : Korean
Default : Нет
Forced : Нет

Текст #22
Идентификатор : 25
Формат : UTF-8
Идентификатор кодека : S_TEXT/UTF8
Идентификатор кодека/Информация : UTF-8 Plain Text
Продолжительность : 1 ч. 5 м.
Битрейт : 39 бит/сек
ElementCount : 705
Размер потока : 18,8 Кбайт (0%)
Язык : Norwegian Bokmal
Default : Нет
Forced : Нет

Текст #23
Идентификатор : 26
Формат : UTF-8
Идентификатор кодека : S_TEXT/UTF8
Идентификатор кодека/Информация : UTF-8 Plain Text
Продолжительность : 1 ч. 5 м.
Битрейт : 43 бит/сек
ElementCount : 704
Размер потока : 20,8 Кбайт (0%)
Язык : Dutch
Default : Нет
Forced : Нет

Текст #24
Идентификатор : 27
Формат : UTF-8
Идентификатор кодека : S_TEXT/UTF8
Идентификатор кодека/Информация : UTF-8 Plain Text
Продолжительность : 1 ч. 5 м.
Битрейт : 43 бит/сек
ElementCount : 777
Размер потока : 20,6 Кбайт (0%)
Язык : Polish
Default : Нет
Forced : Нет

Текст #25
Идентификатор : 28
Формат : UTF-8
Идентификатор кодека : S_TEXT/UTF8
Идентификатор кодека/Информация : UTF-8 Plain Text
Продолжительность : 1 ч. 5 м.
Битрейт : 48 бит/сек
ElementCount : 764
Размер потока : 22,9 Кбайт (0%)
Язык : Portuguese
Default : Нет
Forced : Нет

Текст #26
Идентификатор : 29
Формат : UTF-8
Идентификатор кодека : S_TEXT/UTF8
Идентификатор кодека/Информация : UTF-8 Plain Text
Продолжительность : 1 ч. 4 м.
Битрейт : 46 бит/сек
ElementCount : 767
Размер потока : 22,0 Кбайт (0%)
Заголовок : Brazilian
Язык : Portuguese
Default : Нет
Forced : Нет

Текст #27
Идентификатор : 30
Формат : UTF-8
Идентификатор кодека : S_TEXT/UTF8
Идентификатор кодека/Информация : UTF-8 Plain Text
Продолжительность : 1 ч. 5 м.
Битрейт : 51 бит/сек
ElementCount : 767
Размер потока : 24,7 Кбайт (0%)
Язык : Romanian
Default : Нет
Forced : Нет

Текст #28
Идентификатор : 31
Формат : UTF-8
Идентификатор кодека : S_TEXT/UTF8
Идентификатор кодека/Информация : UTF-8 Plain Text
Продолжительность : 1 ч. 5 м.
Битрейт : 44 бит/сек
ElementCount : 628
Размер потока : 21,1 Кбайт (0%)
Язык : Swedish
Default : Нет
Forced : Нет

Текст #29
Идентификатор : 32
Формат : UTF-8
Идентификатор кодека : S_TEXT/UTF8
Идентификатор кодека/Информация : UTF-8 Plain Text
Продолжительность : 1 ч. 5 м.
Битрейт : 116 бит/сек
ElementCount : 793
Размер потока : 55,4 Кбайт (0%)
Язык : Thai
Default : Нет
Forced : Нет

Текст #30
Идентификатор : 33
Формат : UTF-8
Идентификатор кодека : S_TEXT/UTF8
Идентификатор кодека/Информация : UTF-8 Plain Text
Продолжительность : 1 ч. 5 м.
Битрейт : 45 бит/сек
ElementCount : 753
Размер потока : 21,5 Кбайт (0%)
Язык : Turkish
Default : Нет
Forced : Нет

Текст #31
Идентификатор : 34
Формат : UTF-8
Идентификатор кодека : S_TEXT/UTF8
Идентификатор кодека/Информация : UTF-8 Plain Text
Продолжительность : 1 ч. 5 м.
Битрейт : 59 бит/сек
ElementCount : 786
Размер потока : 28,2 Кбайт (0%)
Язык : Vietnamese
Default : Нет
Forced : Нет

Текст #32
Идентификатор : 35
Формат : UTF-8
Идентификатор кодека : S_TEXT/UTF8
Идентификатор кодека/Информация : UTF-8 Plain Text
Продолжительность : 1 ч. 5 м.
Битрейт : 47 бит/сек
ElementCount : 791
Размер потока : 22,9 Кбайт (0%)
Заголовок : Simplified
Язык : Chinese
Default : Нет
Forced : Нет

Текст #33
Идентификатор : 36
Формат : UTF-8
Идентификатор кодека : S_TEXT/UTF8
Идентификатор кодека/Информация : UTF-8 Plain Text
Продолжительность : 1 ч. 5 м.
Битрейт : 48 бит/сек
ElementCount : 801
Размер потока : 23,3 Кбайт (0%)
Заголовок : Traditional
Язык : Chinese
Default : Нет
Forced : Нет

Меню
00:02:52.484 : en:Intro start
00:04:18.195 : en:Intro end

Внимание! Раздача ведётся путём добавления новых серий; при каждом добавлении создаётся новый торрент. Чтобы начать докачку новой серии, пользователям необходимо сделать следующее:
(1) остановить скачивание,
(2) удалить старый торрент у себя из клиента (старые серии удалять не надо),
(3) скачать новый торрент и запустить его у себя в клиенте вместо старого, при этом указать клиенту путь в старую папку куда и должно происходить скачивание новых серий.

Ваш клиент при этом должен произвести хеширование (проверку) старой папки (если не производит сам - помогите ему сделать это), и будет докачивать только те серии которых у вас ещё нет. Старые серии при этом не удаляются, а продолжают раздаваться!

Eсли вы уже удалили старые серии, то предотвратить повторную закачку старых серий можно, отжав галочку в соответсвующих местах при запуске нового торрента. По возможности, желательно не удалять старые серии как можно дольше чтобы релизёр не столько продолжал раздавать старые серии, а смог сконцентрироваться на новых.
freegat.top



Скачать Нарко: Мексика через торрент https://a.radikal.ru/a31/2002/94/1703ad307f5a.png Скачать фильм Нарко: Мексика через торрент бесплантно в хорошем качестве Описание: В 1980-х годах Феликс Гальярдо решил объединить разрозненных и независимых производителей и дилеров наркотиков Мексики и ... 10 10 11
Торрент: Зарегистрирован [2020-02-18 22:59] · скачан: 21 раз
Статус: √ проверено
Размер: 26.8 GB
Как cкачать? Как скачать Нарко: Мексика через торрент | qTorrent

% Раздел Тема Автор DL S | L
Зарубежные сериалы [ 26.01 GB ] Нарко: Мексика / Narcos: Mexico / Сезон: 2 / Серии: 1-10 из 10 [2020 WEB-DL 1080p] MVO [Jaskier] bober100 Скачать
4 | 0
Зарубежные сериалы [ 12.97 GB ] Нарко: Мексика / Narcos: Mexico / Сезон: 2 / Серии: 1-10 из 10 [2020 WEB-DL 720p] MVO [Jaskier] bober100 Скачать
3 | 2
Зарубежные сериалы [ 6.73 GB ] Нарко: Мексика / Narcos: Mexico / Сезон: 2 / Серии: 1-10 из 10 [2020 WEB-DLRip] MVO [Jaskier] bober100 Скачать
7 | 4
Зарубежные сериалы [ 14.77 GB ] Нарко: Мексика / Narcos: Mexico / Сезон: 2 / Серии: 1-10 из 10 [2020 WEB-DL 720p] MVO [TVShows] bober100 Скачать
2 | 0
Зарубежные сериалы [ 7.57 GB ] Нарко: Мексика / Narcos: Mexico / Сезон: 2 / Серии: 1-2 из 10 [2020 WEB-DL 1080p] MVO [LostFilm] bober100 Скачать
2 | 0
Зарубежные сериалы [ 27.82 GB ] Нарко: Мексика / Narcos: Mexico / Сезон: 2 / Серии: 1-10 из 10 [2020 WEB-DL 1080p] MVO [TVShows] bober100 Скачать
1 | 0
Зарубежные сериалы [ 1.81 GB ] Нарко: Мексика / Narcos: Mexico / Сезон: 2 / Серии: 1-2 из 10 [2020 WEB-DLRip] MVO [Lostfilm] bober100 Скачать
1 | 1

28-11-2019 20:33  

Отключить всю рекламу на сайте

17-02-2020 16:54 Нарко: Мексика Скачать торрент  

не плохо, на лостфильме еще не одной серии нет)freegat.top



17-02-2020 21:38 Нарко: Мексика Скачать торрент  

а еще 2 серии(((?freegat.top



    Дорогой пользователь! Огромная просьба, поблагодарите релизера, оцените раздачу и оставьте свои комментарий, если Вы скачали Нарко: Мексика через торрент бесплатно! Внесите свою лепту в развитие PiratBit!
    Комментировать посты могут только пользователи прошедшие не сложную регистрацию
    Показать сообщения:    

    Нарко: Мексика через торрент
    Скачать бесплатно Нарко: Мексика
    Нарко: Мексика скачать торрент
    Нарко: Мексика смотреть онлайн
    Cкачать фильм Нарко: Мексика бесплатно
    Нарко: Мексика скачать торрент в хорошем качестве
    Нарко: Мексика смотреть онлайн бесплатно в хорошем качестве


    Вы не можете начинать темы
    Вы не можете отвечать на сообщения
    Вы не можете редактировать свои сообщения
    Вы не можете удалять свои сообщения
    Вы не можете голосовать в опросах
    Вы не можете прикреплять файлы к сообщениям
    Вы можете скачивать файлы