Ссылка на приватное зеркало всего за 1$. Внимание количество ограничено!!!

iTunes

1+1

iTunes

мы

MV0

1

WEB-DLRip

Джокер

Пифагор

Ведьмак / The Witcher сериал

iTunes

ПШазам

iTunes

Оно 2

iTunes

30
pack

Вам бонус

ВАЖНО

!!Акция!!

Alien_RageХит недели

RePack

Resident Evil 21

ИГРА 18+

pack

RePack

jed

!!Акция!!

Alien_Rage

RePack

fifa19

RePack

Assassins Creed: Odyssey

RePack

NEED FOR SPEED™ PAYBACK

4 сезон

9 сезон

Бесстыжие 9 сезон

Все сериалы

все сериалы на PB.wtf

RePack

FAR CRY 5
  

Долгий путь / Большая слежка / The Big Trail (Рауль Уолш, Луис Р. Лоффлер) [1930 г., мелодрама, приключения, вестерн, BDRip 720p] [ 4:3 Version ] MVO - KORSAR freegat.top

Долгий путь через торрент freegat.top

Раздают: 1 [ 0 KB/s ]
Размер: 7.67 GB | Добавлен: 3 д. назад | Торрент скачан:0 раз
Скачать  

15-02-2020 07:44 Долгий путь Скачать торрент  

Долгий путь / Большая слежка / The Big Trail
Год выпуска: 1930
Страна: США
Жанр: мелодрама, приключения, вестерн
Продолжительность: 01:48:17
Перевод: Профессиональный (многоголосый)
Субтитры: русские, английские

Режиссер: Рауль Уолш, Луис Р. Лоффлер

rating

В ролях: Джон Уэйн, Маргарит Черчилль, Эль Брендел, Талли Маршалл, Тайрон Пауэр ст., Дэвид Роллинз, Фредерик Бертон, Иэн Кит, Чарльз Стивенс, Луиз Карвер

Описание: Брек Коулмэн человек молодой и горячий, желающий отомстить за смерть своего старого друга. Он подозревает Реда Флэка и его подручного Лопеса и чтобы подтвердить свои подозрения он присоединяется к группе переселенцев, следующих на Запад под началом Флэка.



Качество: BDRip 720p
Формат: MKV

Видео: AVC, 868x720 (1.206), 9500 kbps, 23,976 fps, 0,634 bpp
Аудио №1: русский / AC3 / 5.1 / 48 kHz / 448 kbps / MVO
Аудио №2: английский / AC3 / 2.0 / 48 kHz / 192 kbps
Навигация по главам: есть

Релиз от:
***********************************************************
x264 [info]: frame I:845 Avg QP:18.68 size:115027
x264 [info]: frame P:29511 Avg QP:20.39 size: 73824
x264 [info]: frame B:125431 Avg QP:22.11 size: 43360
***********************************************************
Формат : Matroska
Версия формата : Version 2
Размер файла : 7,67 Гбайт
Продолжительность : 1 ч. 48 м.
Общий поток : 10,1 Мбит/сек
Название фильма : = Долгий путь / Большая слежка / The Big Trail (1930) BDRip 720p 4:3 - KORSAR =
Дата кодирования : UTC 2020-01-29 15:21:28
Программа кодирования : mkvmerge v5.8.0 ('No Sleep / Pillow') built on Sep 2 2012 15:37:04
Библиотека кодирования : libebml v1.2.3 + libmatroska v1.3.0
Attachment : Yes

Видео
Идентификатор : 1
Формат : AVC
Формат/Информация : Advanced Video Codec
Профиль формата : High@L4.1
Параметр CABAC формата : Да
Параметр ReFrames формата : 12 кадров
Идентификатор кодека : V_MPEG4/ISO/AVC
Продолжительность : 1 ч. 48 м.
Битрейт : 9500 Кбит/сек
Ширина : 868 пикселей
Высота : 720 пикселей
Соотношение сторон : 1,206
Режим частоты кадров : Постоянный
Частота кадров : 23,976 кадра/сек
Цветовое пространство : YUV
Субдискретизация насыщенности : 4:2:0
Битовая глубина : 8 бит
Тип развёртки : Прогрессивная
Бит/(Пиксели*Кадры) : 0.634
Размер потока : 7,03 Гбайт (92%)
Заголовок : Долгий путь / Большая слежка / The Big Trail (1930) BDRip 720p 4:3 - KORSAR
Библиотека кодирования : x264 core 158 r2984 3759fcb
Настройки программы : cabac=1 / ref=12 / deblock=1:-3:-2 / analyse=0x3:0x113 / me=umh / subme=11 / psy=1 / psy_rd=1.00:0.10 / mixed_ref=1 / me_range=48 / chroma_me=1 / trellis=2 / 8x8dct=1 / cqm=0 / deadzone=21,11 / fast_pskip=0 / chroma_qp_offset=-3 / threads=12 / lookahead_threads=3 / sliced_threads=0 / nr=0 / decimate=0 / interlaced=0 / bluray_compat=0 / constrained_intra=0 / bframes=12 / b_pyramid=2 / b_adapt=2 / b_bias=0 / direct=3 / weightb=1 / open_gop=0 / weightp=2 / keyint=240 / keyint_min=23 / scenecut=40 / intra_refresh=0 / rc_lookahead=60 / rc=2pass / mbtree=0 / bitrate=9500 / ratetol=1.0 / qcomp=0.66 / qpmin=0 / qpmax=69 / qpstep=4 / cplxblur=20.0 / qblur=0.5 / vbv_maxrate=50000 / vbv_bufsize=62500 / nal_hrd=none / filler=0 / ip_ratio=1.25 / pb_ratio=1.30 / aq=3:1.00
Язык : English
Default : Да
Forced : Нет
Основные цвета : BT.709
Характеристики трансфера : BT.709
Коэффициенты матрицы : BT.709

Аудио #1
Идентификатор : 2
Формат : AC-3
Формат/Информация : Audio Coding 3
Расширение режима : CM (complete main)
Параметр Endianness формата : Big
Идентификатор кодека : A_AC3
Продолжительность : 1 ч. 48 м.
Вид битрейта : Постоянный
Битрейт : 448 Кбит/сек
Каналы : 6 каналов
Расположение каналов : Front: L C R, Side: L R, LFE
Частота : 48,0 КГц
Битовая глубина : 16 бит
Метод сжатия : С потерями
Размер потока : 347 Мбайт (4%)
Заголовок : MVO
Язык : Russian
Default : Да
Forced : Нет

Аудио #2
Идентификатор : 3
Формат : AC-3
Формат/Информация : Audio Coding 3
Расширение режима : CM (complete main)
Параметр Endianness формата : Big
Идентификатор кодека : A_AC3
Продолжительность : 1 ч. 48 м.
Вид битрейта : Постоянный
Битрейт : 192 Кбит/сек
Каналы : 2 канала
Расположение каналов : Front: L R
Частота : 48,0 КГц
Битовая глубина : 16 бит
Метод сжатия : С потерями
Размер потока : 149 Мбайт (2%)
Язык : English
Default : Нет
Forced : Нет

Текст #1
Идентификатор : 4
Формат : UTF-8
Идентификатор кодека : S_TEXT/UTF8
Идентификатор кодека/Информация : UTF-8 Plain Text
Язык : Russian
Default : Нет
Forced : Нет

Текст #2
Идентификатор : 5
Формат : UTF-8
Идентификатор кодека : S_TEXT/UTF8
Идентификатор кодека/Информация : UTF-8 Plain Text
Язык : English
Default : Нет
Forced : Нет

Меню
00:00:00.000 : en:00:00:00.000
00:07:08.928 : en:00:07:08.928
00:18:16.220 : en:00:18:16.220
00:28:14.985 : en:00:28:14.985
00:34:15.553 : en:00:34:15.553
00:46:23.656 : en:00:46:23.656
00:57:51.551 : en:00:57:51.551
01:08:58.426 : en:01:08:58.426
01:18:15.566 : en:01:18:15.566
01:25:52.439 : en:01:25:52.439
01:29:39.833 : en:01:29:39.833
01:41:43.806 : en:01:41:43.806

freegat.top



Скачать Долгий путь через торрент https://img16.lostpic.net/2020/02/04/a9604f00241e7fa2588f19d3db73867c.jpg Скачать фильм Долгий путь через торрент бесплантно в хорошем качестве Описание: Брек Коулмэн человек молодой и горячий, желающий отомстить за смерть своего старого друга. Он подозревает Реда Флэка и его ... 5 10 1
Info! Золотая раздача, скачанное не засчитывается.
Торрент: Зарегистрирован [2020-02-15 07:44] · скачан: 0 раз
Статус: √ проверено
Размер: 7.67 GB
Как cкачать? Как скачать Долгий путь через торрент | qTorrent

28-11-2019 20:33  

Отключить всю рекламу на сайте

15-02-2020 14:11 Долгий путь Скачать торрент  

Топик был перенесен из форума Оформление раздач (Кино, Видео и ТВ) в форум Классика зарубежного кино


Enigma2010freegat.top



    Дорогой пользователь! Огромная просьба, поблагодарите релизера, оцените раздачу и оставьте свои комментарий, если Вы скачали Долгий путь через торрент бесплатно! Внесите свою лепту в развитие PiratBit!
    Комментировать посты могут только пользователи прошедшие не сложную регистрацию
    Показать сообщения:    

    Долгий путь через торрент
    Скачать бесплатно Долгий путь
    Долгий путь скачать торрент
    Долгий путь смотреть онлайн
    Cкачать фильм Долгий путь бесплатно
    Долгий путь скачать торрент в хорошем качестве
    Долгий путь смотреть онлайн бесплатно в хорошем качестве


    Вы не можете начинать темы
    Вы не можете отвечать на сообщения
    Вы не можете редактировать свои сообщения
    Вы не можете удалять свои сообщения
    Вы не можете голосовать в опросах
    Вы не можете прикреплять файлы к сообщениям
    Вы можете скачивать файлы