Ссылка на приватное зеркало всего за 1$. Внимание количество ограничено!!!

iTunes

1+1

iTunes

мы

MV0

1

WEB-DLRip

Джокер

Пифагор

Ведьмак / The Witcher сериал

iTunes

ПШазам

iTunes

Оно 2

iTunes

30
pack

Вам бонус

ВАЖНО

!!Акция!!

Alien_RageХит недели

RePack

Resident Evil 21

ИГРА 18+

pack

RePack

jed

!!Акция!!

Alien_Rage

RePack

fifa19

RePack

Assassins Creed: Odyssey

RePack

NEED FOR SPEED™ PAYBACK

4 сезон

9 сезон

Бесстыжие 9 сезон

Все сериалы

все сериалы на PB.wtf

RePack

FAR CRY 5
  

Шучу / Kidding / Сезон: 2 / Серии: 1-2 из 10 (Джейк Шрейер, Мишель Гондри, Кимберли Пирс) [2020, Драма, комедия, WEB-DLRip] MVO [LostFilm] freegat.top

Шучу через торрент freegat.top

Раздают: 1 [ 13 KB/s ]
Размер: 819 MB | Добавлен: 6 д. назад | Торрент скачан:6 раз
Скачать  

15-02-2020 08:49 Шучу Скачать торрент  

Шучу | Kidding
Год выпуска: 2020
Страна: США
Жанр: Драма, комедия
Продолжительность: ~ 00:30:00
Перевод: Профессиональный (многоголосый закадровый) | LostFilm
Субтитры: Русские (Amedia), английские (SDH)

Режиссёр: Джейк Шрейер, Мишель Гондри, Кимберли Пирс, Кэти Эллвуд

В ролях: Джим Керри, Фрэнк Ланджелла, Кэтрин Кинер, Джуди Грир, Бернард Уайт, Мэри Фабер, Гвен Холландер, Эндрю Т. Ли, Бэрри Ротбарт

Описание: Действие сериала разворачивается в Колумбусе, штат Огайо. В центре сюжета находится Джефф Пиччирилло, также известный как Мистер Пикклз — любимый детьми и родителями ведущий детского телешоу. Вокруг бренда «Мистер Пикклз» выстроена многомиллионная империя, но сам он переживает личную трагедию и проблемы в семье.

rating

Качество: WEB-DLRip
Формат: AVI

Видео: XviD, 720x400 (16:9), 23.976 кадров/сек, 1600 Кбит/сек
Аудио Rus: AC3, 48,0 kHz, 2 ch, 192 Кбит/сек
Аудио Eng: AC3, 48,0 kHz, 2 ch, 192 Кбит/сек


Реклама: Отсутствует
скриншот  скриншот  скриншот  скриншот  

Общее
Полное имя : D:\Kidding (Season 2) WEB-DLRip\Kidding.S02E01.WEB-DLRip.RGzsRutracker.[Wentworth_Miller].avi
Формат : AVI
Формат/Информация : Audio Video Interleave
Размер файла : 411 Мбайт
Продолжительность : 28 м. 46 с.
Общий поток : 1998 Кбит/сек
Программа кодирования : VirtualDubMod 1.5.10.3 | www.virtualdub-fr.org || (build 2550/release)
Библиотека кодирования : VirtualDubMod build 2550/release

Видео
Идентификатор : 0
Формат : MPEG-4 Visual
Профиль формата : Advanced Simple@L5
Настройки формата : BVOP1
Параметр BVOP формата : 1
Параметр QPel формата : Нет
Параметр GMC формата : Без точки перехода
Параметр матрицы формата : Default (MPEG)
Идентификатор кодека : XVID
Идентификатор кодека/Подсказка : XviD
Продолжительность : 28 м. 46 с.
Битрейт : 1600 Кбит/сек
Ширина : 720 пикселей
Высота : 400 пикселей
Соотношение сторон : 16:9
Частота кадров : 23,976 (24000/1001) кадра/сек
Цветовое пространство : YUV
Субдискретизация насыщенности : 4:2:0
Битовая глубина : 8 бит
Тип развёртки : Прогрессивная
Метод сжатия : С потерями
Бит/(Пиксели*Кадры) : 0.232
Размер потока : 329 Мбайт (80%)
Библиотека кодирования : XviD 67

Аудио #1
Идентификатор : 1
Формат : AC-3
Формат/Информация : Audio Coding 3
Коммерческое название : Dolby Digital
Идентификатор кодека : 2000
Продолжительность : 28 м. 46 с.
Вид битрейта : Постоянный
Битрейт : 192 Кбит/сек
Каналы : 2 канала
ChannelLayout : L R
Частота : 48,0 КГц
Частота кадров : 31,250 кадров/сек (1536 SPF)
Метод сжатия : С потерями
Размер потока : 39,5 Мбайт (10%)
Выравнивание : Разделение по промежуткам
Продолжительность промежутка : 42 мс. (1,00 видеокадр)
Время предзагрузки промежутка : 500 мс.
ServiceKind/String : Complete Main

Аудио #2
Идентификатор : 2
Формат : AC-3
Формат/Информация : Audio Coding 3
Коммерческое название : Dolby Digital
Идентификатор кодека : 2000
Продолжительность : 28 м. 46 с.
Вид битрейта : Постоянный
Битрейт : 192 Кбит/сек
Каналы : 2 канала
ChannelLayout : L R
Частота : 48,0 КГц
Частота кадров : 31,250 кадров/сек (1536 SPF)
Метод сжатия : С потерями
Размер потока : 39,5 Мбайт (10%)
Выравнивание : Разделение по промежуткам
Продолжительность промежутка : 42 мс. (1,00 видеокадр)
Время предзагрузки промежутка : 500 мс.
ServiceKind/String : Complete Main

Внимание! Раздача ведётся путём добавления новых серий; при каждом добавлении создаётся новый торрент. Чтобы начать докачку новой серии, пользователям необходимо сделать следующее:
(1) остановить скачивание,
(2) удалить старый торрент у себя из клиента (старые серии удалять не надо),
(3) скачать новый торрент и запустить его у себя в клиенте вместо старого, при этом указать клиенту путь в старую папку куда и должно происходить скачивание новых серий.

Ваш клиент при этом должен произвести хеширование (проверку) старой папки (если не производит сам - помогите ему сделать это), и будет докачивать только те серии которых у вас ещё нет. Старые серии при этом не удаляются, а продолжают раздаваться!

Eсли вы уже удалили старые серии, то предотвратить повторную закачку старых серий можно, отжав галочку в соответствующих местах при запуске нового торрента. По возможности, желательно не удалять старые серии как можно дольше чтобы релизёр не столько продолжал раздавать старые серии, а смог сконцентрироваться на новых.
freegat.top



Скачать Шучу через торрент https://img15.lostpic.net/2020/02/13/5bc4f121ef18e5e11765646cf4f1fb7a.jpg Скачать фильм Шучу через торрент бесплантно в хорошем качестве Описание: Действие сериала разворачивается в Колумбусе, штат Огайо. В центре сюжета находится Джефф Пиччирилло, также известный как Мистер ... 10 10 2
Торрент: Зарегистрирован [2020-02-16 15:02] · скачан: 6 раз
Статус: √ проверено
Размер: 819 MB
Как cкачать? Как скачать Шучу через торрент | qTorrent

% Раздел Тема Автор DL S | L
Зарубежные сериалы [ 2.95 GB ] Шучу / Kidding / Сезон: 2 / Серии: 1-4 из 10 [2020 WEBRip 720p] [MVO] killermax2013 Скачать
1 | 1
Зарубежные сериалы [ 6.04 GB ] Шучу / Kidding / Сезон: 2 / Серии: 1-4 из 10 [2020 WEBRip 1080p] [MVO] killermax2013 Скачать
1 | 1
Зарубежные сериалы [ 4.01 GB ] Шучу / Kidding / Сезон: 2 / Серии: 1-2 из 10 [2020 WEB-DL 1080p] MVO [NewStudio] bober100 Скачать
2 | 1
Зарубежные сериалы [ 2.07 GB ] Шучу / Kidding / Сезон: 2 / Серии: 1-2 из 10 [2020 WEB-DL 720p] MVO [NewStudio] bober100 Скачать
1 | 0
Зарубежные сериалы [ 1.12 GB ] Шучу / Kidding / Сезон: 2 / Серии: 1- из 10 [2020 WEBRip 1080p] [MVO] killermax2013 Скачать
2 | 0

28-11-2019 20:33  

Отключить всю рекламу на сайте

    Дорогой пользователь! Огромная просьба, поблагодарите релизера, оцените раздачу и оставьте свои комментарий, если Вы скачали Шучу через торрент бесплатно! Внесите свою лепту в развитие PiratBit!
    Комментировать посты могут только пользователи прошедшие не сложную регистрацию
    Показать сообщения:    

    Шучу через торрент
    Скачать бесплатно Шучу
    Шучу скачать торрент
    Шучу смотреть онлайн
    Cкачать фильм Шучу бесплатно
    Шучу скачать торрент в хорошем качестве
    Шучу смотреть онлайн бесплатно в хорошем качестве


    Вы не можете начинать темы
    Вы не можете отвечать на сообщения
    Вы не можете редактировать свои сообщения
    Вы не можете удалять свои сообщения
    Вы не можете голосовать в опросах
    Вы не можете прикреплять файлы к сообщениям
    Вы можете скачивать файлы