Ссылка на приватное зеркало всего за 1$. Внимание количество ограничено!!!

iTunes

1+1

iTunes

мы

MV0

1

WEB-DLRip

Джокер

Пифагор

Ведьмак / The Witcher сериал

iTunes

ПШазам

iTunes

Оно 2

iTunes

30
pack

Вам бонус

ВАЖНО

!!Акция!!

Alien_RageХит недели

RePack

Resident Evil 21

ИГРА 18+

pack

RePack

jed

!!Акция!!

Alien_Rage

RePack

fifa19

RePack

Assassins Creed: Odyssey

RePack

NEED FOR SPEED™ PAYBACK

4 сезон

9 сезон

Бесстыжие 9 сезон

Все сериалы

все сериалы на PB.wtf

RePack

FAR CRY 5
  

Они шли на восток (Дмитрий Васильев, Джузеппе Де Сантис) [1964, Италия, СССР, драма, военный, история, DVDRip-AVC от AVP Studio] freegat.top

Они шли на восток через торрент freegat.top

Раздают: 8 [ 290 KB/s ] Качают: 5 [ 161 KB/s ]
Размер: 2.17 GB | Добавлен: 8 д. назад | Торрент скачан:8 раз
Скачать  

15-02-2020 13:19 Они шли на восток Скачать торрент  

Они шли на восток
Страна: СССР
Производство: Мосфильм, Galatea Film

Жанр: драма, военный, история
Год выпуска: 1964
Продолжительность: 02:21:36

Перевод: Не требуется
Cубтитры: нет
Оригинальная аудиодорожка: русский

Режиссер: Дмитрий Васильев, Джузеппе Де Сантис

В ролях:
Андреа Чекки, Татьяна Самойлова, Раффаэле Пизу, Жанна Прохоренко, Артур Кеннеди, Питер Фальк, Риккардо Куччолла, Григорий Михайлов, Нино Винджелли, Лев Прыгунов, Джино Перниче, Винченцо Полицци, Валерий Сомов, Борис Кожухов, Анатолий Сахновский...
Об актёрах подробней

Описание:
Солдаты и офицеры итальянских дивизий шли на Восток, к Москве. Дорого стоил оккупантам каждый их шаг. В этом походе погибает молодой солдат — крестьянин Бадзокки… На Дону итальянцы переходят к обороне. Немцы отшвыривают их с дороги, давят под колесами обмороженных, раненых «союзников». Среди отступающих — старшина Габриэлли. Ему не суждено больше увидеть родину: после многодневного мучительного продвижения Габриэлли замерзнет в пустынном поле…

Источник: DVD9 R5
Качество видео: DVDRip-AVC
Формат видео: MKV

Видео: 688->763х572 (4:3), 25,000 fps, H264 ~ 2008 kbps avg, 0.204 bit/pixel
Аудио: 48 kHz, Dolby Digital AC3 2.0, 192 kbps

Раздача от:
Общее
Полное имя : Oni.shli.na.vostok.1964.DVDRip-AVC_[New-team]_by_AVP_Studio.mkv
Формат : Matroska
Версия формата : Version 4
Размер файла : 2,17 Гбайт
Продолжительность : 2 ч. 21 м.
Общий поток : 2191 Кбит/сек
Дата кодирования : UTC 2020-02-13 19:59:08
Программа кодирования : mkvmerge v43.0.0 ('The Quartermaster') 64-bit
Библиотека кодирования : libebml v1.3.10 + libmatroska v1.5.2

Видео
Идентификатор : 1
Формат : AVC
Формат/Информация : Advanced Video Codec
Профиль формата : Main@L3
Настройки формата : CABAC / 1 Ref Frames
Параметр CABAC формата : Да
Параметр RefFrames формата : 1 кадр
Идентификатор кодека : V_MPEG4/ISO/AVC
Продолжительность : 2 ч. 21 м.
Битрейт : 2008 Кбит/сек
Ширина : 688 пикселей
Высота : 572 пикселя
Соотношение сторон : 4:3
Режим частоты кадров : Постоянный
Частота кадров : 25,000 кадров/сек
Цветовое пространство : YUV
Субдискретизация насыщенности : 4:2:0
Битовая глубина : 8 бит
Тип развёртки : Прогрессивная
Бит/(Пиксели*Кадры) : 0.204
Размер потока : 1,99 Гбайт (92%)
Библиотека кодирования : x264 core 148 r2665M a01e339
Настройки программы : cabac=1 / ref=10 / deblock=0:-2:-1 / analyse=0x1:0 / me=dia / subme=10 / psy=1 / psy_rd=1.00:0.00 / mixed_ref=0 / me_range=10 / chroma_me=1 / trellis=0 / 8x8dct=0 / cqm=0 / deadzone=21,11 / fast_pskip=1 / chroma_qp_offset=-2 / threads=5 / lookahead_threads=1 / sliced_threads=0 / nr=0 / decimate=1 / interlaced=0 / bluray_compat=0 / constrained_intra=0 / bframes=0 / weightp=0 / keyint=250 / keyint_min=25 / scenecut=0 / intra_refresh=0 / rc=2pass / mbtree=0 / bitrate=2008 / ratetol=1.0 / qcomp=0.60 / qpmin=0 / qpmax=69 / qpstep=4 / cplxblur=20.0 / qblur=0.5 / ip_ratio=1.40 / aq=0
Язык : Russian
Default : Да
Forced : Нет

Аудио
Идентификатор : 2
Формат : AC-3
Формат/Информация : Audio Coding 3
Коммерческое название : Dolby Digital
Идентификатор кодека : A_AC3
Продолжительность : 2 ч. 13 м.
Вид битрейта : Постоянный
Битрейт : 192 Кбит/сек
Каналы : 2 канала
ChannelLayout : L R
Частота : 48,0 КГц
Частота кадров : 31,250 кадров/сек (1536 SPF)
Метод сжатия : С потерями
Размер потока : 183 Мбайт (8%)
Язык : Russian
Default : Да
Forced : Нет

Меню
00:00:00.000 : :Глава 1
00:07:35.040 : :Глава 2
00:15:13.200 : :Глава 3
00:22:37.680 : :Глава 4
00:30:14.520 : :Глава 5
00:37:49.320 : :Глава 6
00:45:55.920 : :Глава 7
00:53:45.240 : :Глава 8
01:09:52.800 : :Глава 9
01:22:59.920 : :Глава 10
01:31:07.240 : :Глава 11
01:35:08.679 : :Глава 12
01:38:10.360 : :Глава 13
01:41:01.599 : :Глава 14
01:48:49.480 : :Глава 15
01:57:02.799 : :Глава 16
02:05:16.959 : :Глава 17
02:13:45.759 : :Глава 18
freegat.top



Скачать Они шли на восток через торрент http://a.radikal.ru/a16/2002/fe/690c1ef74016.png Скачать фильм Они шли на восток через торрент бесплантно в хорошем качестве Описание:Солдаты и офицеры итальянских дивизий шли на Восток, к Москве. Дорого стоил оккупантам каждый их шаг. В этом походе погибает ... 9.7 10 3
Info! Золотая раздача, скачанное не засчитывается.
Торрент: Зарегистрирован [2020-02-15 13:19] · скачан: 8 раз
Статус: √ проверено
Размер: 2.17 GB
Как cкачать? Как скачать Они шли на восток через торрент | qTorrent

28-11-2019 20:33  

Отключить всю рекламу на сайте

    Дорогой пользователь! Огромная просьба, поблагодарите релизера, оцените раздачу и оставьте свои комментарий, если Вы скачали Они шли на восток через торрент бесплатно! Внесите свою лепту в развитие PiratBit!
    Комментировать посты могут только пользователи прошедшие не сложную регистрацию
    Показать сообщения:    

    Они шли на восток через торрент
    Скачать бесплатно Они шли на восток
    Они шли на восток скачать торрент
    Они шли на восток смотреть онлайн
    Cкачать фильм Они шли на восток бесплатно
    Они шли на восток скачать торрент в хорошем качестве
    Они шли на восток смотреть онлайн бесплатно в хорошем качестве


    Вы не можете начинать темы
    Вы не можете отвечать на сообщения
    Вы не можете редактировать свои сообщения
    Вы не можете удалять свои сообщения
    Вы не можете голосовать в опросах
    Вы не можете прикреплять файлы к сообщениям
    Вы можете скачивать файлы