Ссылка на приватное зеркало всего за 1$. Внимание количество ограничено!!!

iTunes

1+1

iTunes

мы

MV0

1

WEB-DLRip

Джокер

Пифагор

Ведьмак / The Witcher сериал

iTunes

ПШазам

iTunes

Оно 2

iTunes

30
pack

Вам бонус

ВАЖНО

!!Акция!!

Alien_RageХит недели

RePack

Resident Evil 21

ИГРА 18+

pack

RePack

jed

!!Акция!!

Alien_Rage

RePack

fifa19

RePack

Assassins Creed: Odyssey

RePack

NEED FOR SPEED™ PAYBACK

4 сезон

9 сезон

Бесстыжие 9 сезон

Все сериалы

все сериалы на PB.wtf

RePack

FAR CRY 5
  

12 лет рабства / 12 Years a Slave (Стив МакКуин) [2013 г., драма, биография, история, BDRip - HEVC 1080p 10Bit 60 FPS, Дубляж Лицензия] freegat.top

12 лет рабства через торрент freegat.top

Раздают: 9 [ 0 KB/s ]
Размер: 4.35 GB | Добавлен: 7 д. назад | Торрент скачан:37 раз
Скачать  

15-02-2020 14:26 12 лет рабства Скачать торрент  

12 лет рабства / 12 Years a Slave
Год выпуска: 2013
Страна: США, Великобритания
Жанр: драма, биография, история, ...
Продолжительность: 133 мин. / 02:13
Перевод: Дубляж Лицензия
Тип релиза: Пиратка
Субтитры: Russian

Режиссер: Стив МакКуин

Бюджет: $20 000 000
Премьера в мире: 30 августа 2013

rating

В ролях: Чиветель Эджиофор, Майкл Фассбендер, Лупита Нионго, Сара Полсон, Бенедикт Камбербэтч, Брэд Питт, Пол Дано, Пол Джаматти, Элфри Вудард, Эдеперо Одуйе

Описание: Соломон Нортап был женатым и образованным мужчиной, который жил и работал в штате Нью-Йорк, когда два человека однажды предложили ему привлекательную работу в Вашингтоне. По прибытии он был похищен, стал рабом и влачил жалкую жизнь, переходя от одного хозяина к другому.

Качество: BDRip 1080p / 60 FPS
Формат: MKV
Видео кодек: H.265
Аудио кодек: AC3
Видео: V_MPEGH/ISO/HEVC;1920x800 (2.40:1);4002 Kbps;59,940 fps;0,043 bpp
Аудио#1: русский;AC3;640 Kbps;CBR;6 ch
Релиз от: DD2D3
скриншот  скриншот  скриншот  
скриншот  скриншот  

General
Unique ID : 214706750420603009961860855991571214522 (0xA1870417E6D86E1E8BCB7935296270BA)
Complete name : D:\12 лет рабства - 12 Years a Slave (2013) BDRip - HEVC 1080p 10Bit 60 FPS .mkv
Format : Matroska
Format version : Version 4
File size : 4.35 GiB
Duration : 2 h 14 min
Overall bit rate : 4 646 kb/s
Movie name : Rip by DD2D3
Encoded date : UTC 2020-02-02 17:31:50
Writing application : mkvmerge v10.0.0 ('To Drown In You') 32bit
Writing library : libebml v1.3.4 + libmatroska v1.4.5
Attachments : poster

Video
ID : 1
Format : HEVC
Format/Info : High Efficiency Video Coding
Format profile : Main 10@L4.1@Main
Codec ID : V_MPEGH/ISO/HEVC
Duration : 2 h 14 min
Bit rate : 4 002 kb/s
Width : 1 920 pixels
Height : 800 pixels
Display aspect ratio : 2.40:1
Frame rate mode : Constant
Frame rate : 59.940 (60000/1001) FPS
Color space : YUV
Chroma subsampling : 4:2:0
Bit depth : 10 bits
Bits/(Pixel*Frame) : 0.043
Stream size : 3.75 GiB (86%)
Writing library : x265 2.3+33-0b7d54dbb71a87a0:[Windows][MSVC 1800][64 bit] 10bit: KG7x [x265.ru]
Encoding settings : cpuid=1173503 / frame-threads=2 / numa-pools=4 / wpp / no-pmode / no-pme / no-psnr / no-ssim / log-level=2 / input-csp=1 / input-res=1920x800 / interlace=0 / total-frames=482518 / level-idc=41 / high-tier=1 / uhd-bd=0 / ref=3 / no-allow-non-conformance / no-repeat-headers / annexb / no-aud / no-hrd / info / hash=0 / no-temporal-layers / open-gop / min-keyint=25 / keyint=250 / bframes=4 / b-adapt=2 / b-pyramid / bframe-bias=0 / rc-lookahead=20 / lookahead-slices=5 / scenecut=40 / no-intra-refresh / ctu=64 / min-cu-size=8 / no-rect / no-amp / max-tu-size=32 / tu-inter-depth=1 / tu-intra-depth=1 / limit-tu=0 / rdoq-level=0 / dynamic-rd=0.00 / no-ssim-rd / signhide / no-tskip / nr-intra=0 / nr-inter=0 / no-constrained-intra / strong-intra-smoothing / max-merge=2 / limit-refs=3 / no-limit-modes / me=1 / subme=2 / merange=57 / temporal-mvp / weightp / no-weightb / no-analyze-src-pics / deblock=0:0 / no-sao / no-sao-non-deblock / rd=3 / no-early-skip / no-rskip / no-fast-intra / no-tskip-fast / no-cu-lossless / no-b-intra / rdpenalty=0 / psy-rd=4.00 / psy-rdoq=0.00 / no-rd-refine / analysis-mode=0 / no-lossless / cbqpoffs=0 / crqpoffs=0 / rc=abr / bitrate=4000 / qcomp=0.60 / qpstep=1 / stats-write=0 / stats-read=2 / cplxblur=20.0 / qblur=0.5 / ipratio=1.10 / pbratio=1.00 / aq-mode=0 / aq-strength=0.00 / no-cutree / zone-count=0 / no-strict-cbr / qg-size=64 / rc-grain / qpmax=69 / qpmin=0 / sar=1 / overscan=0 / videoformat=5 / range=0 / colorprim=2 / transfer=2 / colormatrix=2 / chromaloc=0 / display-window=0 / max-cll=0,0 / min-luma=0 / max-luma=1023 / log2-max-poc-lsb=8 / vui-timing-info / vui-hrd-info / slices=1 / opt-qp-pps / opt-ref-list-length-pps / no-multi-pass-opt-rps / scenecut-bias=0.05 / no-opt-cu-delta-qp / no-aq-motion / no-hdr / no-hdr-opt / refine-level=5 / no-limit-sao
Default : Yes
Forced : No

Audio
ID : 2
Format : AC-3
Format/Info : Audio Coding 3
Commercial name : Dolby Digital
Codec ID : A_AC3
Duration : 2 h 14 min
Bit rate mode : Constant
Bit rate : 640 kb/s
Channel(s) : 6 channels
Channel layout : L R C LFE Ls Rs
Sampling rate : 48.0 kHz
Frame rate : 31.250 FPS (1536 SPF)
Compression mode : Lossy
Stream size : 614 MiB (14%)
Title : Дублированный (Лицензия)
Language : Russian
Service kind : Complete Main
Default : Yes
Forced : No

Text
ID : 3
Format : UTF-8
Codec ID : S_TEXT/UTF8
Codec ID/Info : UTF-8 Plain Text
Duration : 2 h 7 min
Bit rate : 62 b/s
Count of elements : 1164
Stream size : 58.5 KiB (0%)
Language : Russian
Default : No
Forced : No

Menu
00:00:00.000 : en:00:00:00.000
00:06:02.862 : en:00:06:02.862
00:10:13.530 : en:00:10:13.530
00:12:58.778 : en:00:12:58.778
00:16:24.650 : en:00:16:24.650
00:19:18.866 : en:00:19:18.866
00:25:01.709 : en:00:25:01.709
00:27:48.458 : en:00:27:48.458
00:32:07.968 : en:00:32:07.968
00:36:07.874 : en:00:36:07.874
00:39:39.127 : en:00:39:39.127
00:45:16.714 : en:00:45:16.714
00:47:36.145 : en:00:47:36.145
00:52:26.977 : en:00:52:26.977
00:54:34.188 : en:00:54:34.188
00:59:34.029 : en:00:59:34.029
01:01:47.704 : en:01:01:47.704
01:06:04.544 : en:01:06:04.544
01:09:55.691 : en:01:09:55.691
01:12:47.989 : en:01:12:47.989
01:15:27.690 : en:01:15:27.690
01:18:31.874 : en:01:18:31.874
01:21:08.489 : en:01:21:08.489
01:23:46.688 : en:01:23:46.688
01:26:25.972 : en:01:26:25.972
01:28:18.877 : en:01:28:18.877
01:31:22.519 : en:01:31:22.519
01:34:10.144 : en:01:34:10.144
01:38:14.013 : en:01:38:14.013
01:41:50.313 : en:01:41:50.313
01:45:18.896 : en:01:45:18.896
01:53:09.908 : en:01:53:09.908
01:54:46.505 : en:01:54:46.505
02:00:22.215 : en:02:00:22.215
02:04:07.398 : en:02:04:07.398
02:07:25.721 : en:02:07:25.721

freegat.top



Скачать 12 лет рабства через торрент https://funkyimg.com/i/32hZj.jpg Скачать фильм 12 лет рабства через торрент бесплантно в хорошем качестве Описание: Соломон Нортап был женатым и образованным мужчиной, который жил и работал в штате Нью-Йорк, когда два человека однажды предложили ... 7.8 10 4
Торрент: Зарегистрирован [2020-02-15 14:26] · скачан: 37 раз
Статус: √ проверено
Размер: 4.35 GB
Как cкачать? Как скачать 12 лет рабства через торрент | qTorrent

% Раздел Тема Автор DL S | L
Фильмы [HD 720p, 1080p] (Хороший звук DUB, MVO) [ 8.23 GB ] 12 лет рабства / 12 Years a Slave [2013 биография история BDRip 1080p HEVC ] Мичман37 Скачать
1 | 0
Фильмы [HD 720p, 1080p] (Хороший звук DUB, MVO) [ 11.28 GB ] 12 лет рабства / 12 Years a Slave [2013 биография история BDRip 1080p [ - / ] Ворон Скачать
1 | 1
Фильмы 2013 [DVDrip, WEB-DLRip, HDrip] [ 1.45 GB ] 12 лет рабства / 12 Years a Slave [2013 биография история WEB-DLRip-AVC] Dub () sokol_ok Скачать
2 | 0
Фильмы 2013 [DVDrip, WEB-DLRip, HDrip] [ 2.18 GB ] 12 лет рабства / 12 Years a Slave [2013 биография история HDRip-AVC] DUB [] от R.G. PiratFilms Phoenix Скачать
1 | 0
Фильмы [HD 720p, 1080p] (Хороший звук DUB, MVO) [ 8.33 GB ] 12 лет рабства / 12 Years a Slave [2013 биография история BDRip 720p] DUB potroks Скачать
1 | 0
Фильмы 2013 [DVDrip, WEB-DLRip, HDrip] [ 3.13 GB ] 12 лет рабства / 12 Years a Slave [2013 биография история BDRip-AVC] DUB potroks Скачать
1 | 0
Фильмы (DVD фильмы) [ 6.73 GB ] 12 лет рабства / 12 Years a Slave [2013 биография история DVD9] R5 voovaz Скачать
1 | 0

28-11-2019 20:33  

Отключить всю рекламу на сайте

    Дорогой пользователь! Огромная просьба, поблагодарите релизера, оцените раздачу и оставьте свои комментарий, если Вы скачали 12 лет рабства через торрент бесплатно! Внесите свою лепту в развитие PiratBit!
    Комментировать посты могут только пользователи прошедшие не сложную регистрацию
    Показать сообщения:    

    12 лет рабства через торрент
    Скачать бесплатно 12 лет рабства
    12 лет рабства скачать торрент
    12 лет рабства смотреть онлайн
    Cкачать фильм 12 лет рабства бесплатно
    12 лет рабства скачать торрент в хорошем качестве
    12 лет рабства смотреть онлайн бесплатно в хорошем качестве


    Вы не можете начинать темы
    Вы не можете отвечать на сообщения
    Вы не можете редактировать свои сообщения
    Вы не можете удалять свои сообщения
    Вы не можете голосовать в опросах
    Вы не можете прикреплять файлы к сообщениям
    Вы можете скачивать файлы